Кубинский плейбой / Cuban Lover / Kyuba no koibito (Кадзуо Куроки / Kazuo Kuroki) [1969, Япония, Куба, драма, история, DVDRip] + Sub Rus Eng + Original Spa Jap


Статистика раздачи [Обновить пиров]
Размер:  1.1 GB   |    Зарегистрирован:  8 месяцев 17 дней   |    Скачан:  0 раз

Полного источника не было: Никогда

 
   
 
 
 

[Цитировать]

Кубинский плейбой / Cuban Lover / Kyuba no koibito / キューバの恋人
Страна: Япония, Куба
Жанр: драма, история
Год выпуска: 1969
Продолжительность: 01:32:50
Перевод1 : Субтитры русские -дед_сто_лет©
Перевод 2: Субтитры английские
Оригинальная аудиодорожка: испанский, японский
Режиссер: Кадзуо Куроки / Kazuo Kuroki
В ролях:
Акира - МАСАХИКО ЦУГАВА
Марсия - ОБДУЛИЯ ПЛАСЕНСИА
Глория - ГЛОРИЯ ЛИ
Милиционер - АРМАНДО УРБАХ
Описание: Японский моряк Акира решил провести отпуск на Кубе, где все наполнено любовью, музыкой и страстью. Но встреча с Марсией меняет его отношение к Кубе и к революции.
Сложный видеоряд этого фильма объединяет игровое кино с документалистикой.©
> > > > > > >
Качество видео: DVDRip
Формат видео: AVI
Видео: 640x480 (1.33:1), 23.976 fps, XviD build 64 ~1498 kbps avg, 0.20 bit/pixel
Аудио: 48 kHz, MPEG Layer 3, 2 ch, ~192.00 kbps avg
Формат субтитров: softsub (SRT)
Доп. информация о субтитрах: дед_сто_лет

Пример субтитров

247
00:37:34,785 --> 00:37:35,635
Глория.
248
00:37:37,255 --> 00:37:38,105
А твоё?
249
00:37:38,839 --> 00:37:40,141
Акира.
250
00:37:46,964 --> 00:37:49,393
- Сколько тебе лет?
- Восемнадцать.
251
00:37:52,069 --> 00:37:54,239
Это то, что нужно...
для меня.
252
00:39:30,101 --> 00:39:32,781
Эй, смотри, этот парень здорово
рубит тростник. Ты его знаешь?
253
00:39:33,170 --> 00:39:35,780
Смотри, как хорошо он рубит,
как быстро, как аккуратно!
254
00:39:36,374 --> 00:39:39,824
Его удары очень точные, как будто
он очень давно это делает!
255
00:39:46,903 --> 00:39:48,236
Акира-сан, попробуй.
256
00:39:52,390 --> 00:39:53,240
Тростник.
257
00:39:58,562 --> 00:39:59,902
Нравится?
258
00:40:01,031 --> 00:40:02,461
Кубинский тростник.
259
00:40:08,939 --> 00:40:10,589
Вон там мой дом.
260
00:40:10,808 --> 00:40:11,658
Да? Это замечательно!
261
00:40:12,410 --> 00:40:14,110
- Там ждет меня моя мама.
- Да?
262
00:40:30,594 --> 00:40:31,884
Матушка, очень вкусно!
263
00:40:32,229 --> 00:40:33,659
Положить тебе ещё немного, сынок?
264
00:40:35,232 --> 00:40:39,122
Я наелся. Если съем ещё хоть
немного, не смогу сдвинуться с места.
265
00:40:43,741 --> 00:40:46,321
<i>Эй, насладись этим ритмом.</i>
266
00:40:47,378 --> 00:40:48,518
<i>Ча-ча-ча</i>
267
00:40:49,246 --> 00:40:51,646
<i>Этот танец придает жизни.</i>

MediaInfo

General
Complete name : C:\Torrents\[ASIA]\Cuban.Lover(1969)Kazuo.Kuroki\Kyuba-no.koibito(1969)Kazuo.Kuroki.avi
Format : AVI
Format/Info : Audio Video Interleave
File size : 1.10 GiB
Duration : 1h 32mn
Overall bit rate : 1 700 Kbps
Video
ID : 0
Format : MPEG-4 Visual
Format profile : Advanced Simple@L5
Format settings, BVOP : 1
Format settings, QPel : No
Format settings, GMC : No warppoints
Format settings, Matrix : Custom
Codec ID : XVID
Codec ID/Hint : XviD
Duration : 1h 32mn
Bit rate : 1 498 Kbps
Width : 640 pixels
Height : 480 pixels
Display aspect ratio : 4:3
Frame rate : 23.976 fps
Color space : YUV
Chroma subsampling : 4:2:0
Bit depth : 8 bits
Scan type : Progressive
Compression mode : Lossy
Bits/(Pixel*Frame) : 0.203
Stream size : 995 MiB (88%)
Writing library : XviD 64
Audio
ID : 1
Format : MPEG Audio
Format version : Version 1
Format profile : Layer 3
Mode : Joint stereo
Codec ID : 55
Codec ID/Hint : MP3
Duration : 1h 32mn
Bit rate mode : Constant
Bit rate : 192 Kbps
Channel(s) : 2 channels
Sampling rate : 48.0 KHz
Compression mode : Lossy
Stream size : 127 MiB (11%)
Alignment : Aligned on interleaves
Interleave, duration : 42 ms (1.00 video frame)

Скриншот c названием фильма

Скриншоты

[teatrix.ru].t22812.torrent 
Торрент: Зарегистрирован [ 2016-03-21 00:44 ] · 3629E2BA6FA04300A3FB9D5302C3767D2B16BE0B

Скачать .torrent

Скачать

12 KB

Статус: проверено
Скачан: 0 раз
Размер: 1.1 GB
terms.php



Быстрый ответ

Имя:

      
Для отправки сообщений необходимо включить JavaScript
Показать сообщения:    

Текущее время: 07-Дек 15:25

Часовой пояс: UTC + 3


Вы можете начинать темы
Вы можете отвечать на сообщения
Вы не можете редактировать свои сообщения
Вы не можете удалять свои сообщения
Вы не можете голосовать в опросах
Вы не можете прикреплять файлы к сообщениям
Вы можете скачивать файлы