(Classical) Jean Sibelius - Belshazzar’s Feast; Overture in E; Scene de Ballet; Wedding March; Cortege; Menuetto; Processional - Pia Pajala, Turku Philharmonic Orchestra, Leif Segerstam - 2015, FLAC (image+.cue) lossless


 

[Цитировать]

Jean Sibelius - Belshazzar’s Feast; Overture in E; Scène de Ballet; Wedding March; Cortège; Menuetto; Processional - Pia Pajala, Turku Philharmonic Orchestra, Leif Segerstam
Жанр: Classical
Год издания диска: 2015
Издатель (лейбл): Naxos
Номер по каталогу: 8.573300
Дата записи: 2014
Аудиокодек: FLAC
Тип рипа: image+.cue
Битрейт аудио: lossless
Продолжительность: 63:01
Источник: собственный рип
Наличие сканов в содержимом раздачи: да
Треклист:
Jean Sibelius (1865-1957)
[1] Overture in E major, JS145 (1891)
[2] Scène de Ballet, JS163 (1891)
[3]-[13] Belsazars Gästebud (Belshazzar’s Feast), JS48 (1906)
[14] Die Sprache der Vögel (The Language of the Birds): Wedding March, JS62 (1911)
[15] Cortège, JS54 (1905)
[16] Menuetto, JS5 (1894)
[17] Processional, Op. 113, No. 6 (1938)
Исполнители:
Pia Pajala soprano
Turku Philharmonic Orchestra
Leif Segerstam

Лог создания рипа

Exact Audio Copy V1.1 from 23. June 2015
EAC extraction logfile from 2. January 2016, 16:08
Turku Philharmonic Orchestra, Leif Segerstam / Sibelius - Belshazzar's Feast
Used drive : HL-DT-STDVDRAM GU70N Adapter: 1 ID: 0
Read mode : Secure
Utilize accurate stream : Yes
Defeat audio cache : Yes
Make use of C2 pointers : No
Read offset correction : 48
Overread into Lead-In and Lead-Out : No
Fill up missing offset samples with silence : Yes
Delete leading and trailing silent blocks : No
Null samples used in CRC calculations : Yes
Used interface : Native Win32 interface for Win NT & 2000
Used output format : User Defined Encoder
Selected bitrate : 128 kBit/s
Quality : High
Add ID3 tag : No
Command line compressor : C:\Program Files (x86)\Exact Audio Copy\Flac\flac.exe
Additional command line options : -V -8 -T "Date=%year%" -T "Genre=%genre%" %source%
TOC of the extracted CD
Track | Start | Length | Start sector | End sector
---------------------------------------------------------
1 | 0:00.00 | 11:43.70 | 0 | 52794
2 | 11:43.70 | 8:00.59 | 52795 | 88853
3 | 19:44.54 | 2:00.59 | 88854 | 97912
4 | 21:45.38 | 3:48.68 | 97913 | 115080
5 | 25:34.31 | 3:26.13 | 115081 | 130543
6 | 29:00.44 | 0:56.72 | 130544 | 134815
7 | 29:57.41 | 1:23.67 | 134816 | 141107
8 | 31:21.33 | 1:21.39 | 141108 | 147221
9 | 32:42.72 | 0:41.61 | 147222 | 150357
10 | 33:24.58 | 3:14.43 | 150358 | 164950
11 | 36:39.26 | 2:10.09 | 164951 | 174709
12 | 38:49.35 | 0:59.19 | 174710 | 179153
13 | 39:48.54 | 1:23.57 | 179154 | 185435
14 | 41:12.36 | 4:54.18 | 185436 | 207503
15 | 46:06.54 | 6:49.52 | 207504 | 238230
16 | 52:56.31 | 5:41.57 | 238231 | 263862
17 | 58:38.13 | 4:20.62 | 263863 | 283424
Range status and errors
Selected range
Filename C:\temp\Naxos_8.573300 - Sibelius - Belshazzar's Feast\Sibelius - Belshazzar's Feast.wav
Peak level 98.1 %
Extraction speed 2.1 X
Range quality 100.0 %
Test CRC 48C7E077
Copy CRC 48C7E077
Copy OK
No errors occurred
AccurateRip summary
Track 1 accurately ripped (confidence 1) [28B53D4F] (AR v2)
Track 2 accurately ripped (confidence 1) [C53882D9] (AR v2)
Track 3 accurately ripped (confidence 1) [661E62D9] (AR v2)
Track 4 accurately ripped (confidence 1) [E19FB2E2] (AR v2)
Track 5 accurately ripped (confidence 1) [3E6E2D4D] (AR v2)
Track 6 accurately ripped (confidence 1) [FB9E6D93] (AR v2)
Track 7 accurately ripped (confidence 1) [F1B6BBF0] (AR v2)
Track 8 accurately ripped (confidence 1) [4CECE189] (AR v2)
Track 9 accurately ripped (confidence 1) [35D75A31] (AR v2)
Track 10 accurately ripped (confidence 1) [A71106FC] (AR v2)
Track 11 accurately ripped (confidence 1) [5079C1B6] (AR v2)
Track 12 accurately ripped (confidence 1) [81122587] (AR v2)
Track 13 accurately ripped (confidence 1) [0FB51782] (AR v2)
Track 14 accurately ripped (confidence 1) [AE0B61D5] (AR v2)
Track 15 accurately ripped (confidence 1) [943B1CB6] (AR v2)
Track 16 accurately ripped (confidence 1) [0438D634] (AR v2)
Track 17 accurately ripped (confidence 1) [BFD0E563] (AR v2)
All tracks accurately ripped
End of status report
==== Log checksum 2830D57E601A3FBC032ADF5E7FE1D4F200B2DDD66B6FC5394ACE4CD4FE8C7EBF ====



Показать сообщения:    

Текущее время: 07-Дек 11:39

Часовой пояс: UTC + 3


Вы не можете начинать темы
Вы не можете отвечать на сообщения
Вы не можете редактировать свои сообщения
Вы не можете удалять свои сообщения
Вы не можете голосовать в опросах
Вы не можете прикреплять файлы к сообщениям
Вы не можете скачивать файлы