(Classical/Piano) Joaquin Turina - Complete Piano Music [Jordi Maso, piano] Vols.1-11 - 2004-2015, FLAC (image+.cue) lossless


 

[Цитировать]

• Joaquín Turina - Complete Piano Music •

Jordi Masó, piano
-

Vol.1

Жанр: Classical/Piano
Страна-производитель диска: EU
Год издания диска: 2004
Издатель (лейбл): Naxos
Номер по каталогу: 8.557150
Дата записи: 24&25.IV.2003
Аудиокодек: FLAC
Тип рипа: image+.cue
Битрейт аудио: lossless
Продолжительность: 1:10'25"
Источник: собственный рип
Наличие сканов в содержимом раздачи: да
Треклист:
Danzas fantasticas, Op.22
01. I. Exaltacion
02. II. Ensueno
03. III. Orgia
Tres Danzas andaluzas, Op.8
04. I. Petenera
05. II. Tango
06. III. Zapateado
Danzas gitanas, Op.55
07. I. Zambra
08. II. Danza de la seduccion
09. III. Danza ritual
10. IV. Generalife
11. V. Sacro-monte
Danzas gitanas, Op.84
12. I. Fiesta de las calderas
13. II. Circulos ritmicos
14. III. Invocacion
15. IV. Danza ritmica
16. V. Seguiriya
Dos Danzas sobre temas populares espanoles, Op.41
17. I. Cadena de seguidillas
18. II. El arbol de Guernica
Bailete: Suite de danzas del siglo XIX, Op.79
19. I. Entrada
20. II. Tirana
21. III. Bolero
22. IV. Danza de corte
23. V. Fandango-

Лог создания рипа

Exact Audio Copy V1.0 beta 4 from 7. December 2014
EAC extraction logfile from 13. January 2016, 20:28
Joaquin Turina / Piano Music Vol.1
Used drive : TSSTcorpDVDWBD TS-LB23A Adapter: 1 ID: 0
Read mode : Secure
Utilize accurate stream : Yes
Defeat audio cache : Yes
Make use of C2 pointers : No
Read offset correction : 6
Overread into Lead-In and Lead-Out : No
Fill up missing offset samples with silence : Yes
Delete leading and trailing silent blocks : No
Null samples used in CRC calculations : Yes
Used interface : Native Win32 interface for Win NT & 2000
Used output format : User Defined Encoder
Selected bitrate : 128 kBit/s
Quality : High
Add ID3 tag : Yes
Command line compressor : C:\Program Files (x86)\Exact Audio Copy\Flac\flac.exe
Additional command line options : -T "COMMENT=Ripped by GFox" -V -8 %source%
TOC of the extracted CD
Track | Start | Length | Start sector | End sector
---------------------------------------------------------
1 | 0:00.00 | 4:54.71 | 0 | 22120
2 | 4:54.71 | 5:52.48 | 22121 | 48568
3 | 10:47.44 | 4:45.21 | 48569 | 69964
4 | 15:32.65 | 3:45.09 | 69965 | 86848
5 | 19:17.74 | 3:51.36 | 86849 | 104209
6 | 23:09.35 | 4:15.16 | 104210 | 123350
7 | 27:24.51 | 3:34.63 | 123351 | 139463
8 | 30:59.39 | 2:52.52 | 139464 | 152415
9 | 33:52.16 | 3:05.65 | 152416 | 166355
10 | 36:58.06 | 1:38.58 | 166356 | 173763
11 | 38:36.64 | 1:53.30 | 173764 | 182268
12 | 40:30.19 | 4:01.44 | 182269 | 200387
13 | 44:31.63 | 1:35.45 | 200388 | 207557
14 | 46:07.33 | 4:31.20 | 207558 | 227902
15 | 50:38.53 | 1:23.16 | 227903 | 234143
16 | 52:01.69 | 2:27.51 | 234144 | 245219
17 | 54:29.45 | 1:55.20 | 245220 | 253864
18 | 56:24.65 | 2:58.40 | 253865 | 267254
19 | 59:23.30 | 1:56.58 | 267255 | 276012
20 | 61:20.13 | 2:15.52 | 276013 | 286189
21 | 63:35.65 | 2:29.09 | 286190 | 297373
22 | 66:04.74 | 1:44.66 | 297374 | 305239
23 | 67:49.65 | 2:35.10 | 305240 | 316874
Range status and errors
Selected range
Filename D:\Downloads\Joaquin Turina - Piano Music Vol.1.wav
Peak level 80.2 %
Extraction speed 1.9 X
Range quality 99.9 %
Test CRC 96378457
Copy CRC 96378457
Copy OK
No errors occurred
AccurateRip summary
Track 1 accurately ripped (confidence 2) [55224582] (AR v2)
Track 2 accurately ripped (confidence 2) [A44FD869] (AR v2)
Track 3 accurately ripped (confidence 2) [94940D12] (AR v2)
Track 4 accurately ripped (confidence 2) [6E37225D] (AR v2)
Track 5 accurately ripped (confidence 2) [F8F2B3AB] (AR v2)
Track 6 accurately ripped (confidence 2) [0EC98FA3] (AR v2)
Track 7 accurately ripped (confidence 2) [51A8B916] (AR v2)
Track 8 accurately ripped (confidence 2) [416A710A] (AR v2)
Track 9 accurately ripped (confidence 2) [9CB8D03B] (AR v2)
Track 10 accurately ripped (confidence 2) [3C3588D3] (AR v2)
Track 11 accurately ripped (confidence 2) [71B9A438] (AR v2)
Track 12 accurately ripped (confidence 2) [A54B5803] (AR v2)
Track 13 accurately ripped (confidence 2) [8DEA336C] (AR v2)
Track 14 accurately ripped (confidence 2) [DBF4DAE7] (AR v2)
Track 15 accurately ripped (confidence 2) [71072234] (AR v2)
Track 16 accurately ripped (confidence 2) [34A683B2] (AR v2)
Track 17 accurately ripped (confidence 2) [F7A583E5] (AR v2)
Track 18 accurately ripped (confidence 2) [A1204F40] (AR v2)
Track 19 accurately ripped (confidence 2) [49C785CE] (AR v2)
Track 20 accurately ripped (confidence 2) [E9485F16] (AR v2)
Track 21 accurately ripped (confidence 2) [982B2FC8] (AR v2)
Track 22 accurately ripped (confidence 2) [07E5EA57] (AR v2)
Track 23 accurately ripped (confidence 2) [1BFB2814] (AR v2)
All tracks accurately ripped
End of status report
==== Log checksum B8FFB12B0FDEC0E156AE9C08F178DD70EE9A47276A61CE896A7CAC668D3CFFB6 ====
-
-

Vol.2

Жанр: Classical/Piano
Страна-производитель диска: EU
Год издания диска: 2005
Издатель (лейбл): Naxos
Номер по каталогу: 8.557438
Дата записи: 5&6.VII.2004
Аудиокодек: FLAC
Тип рипа: image+.cue
Битрейт аудио: lossless
Продолжительность: 1:07'45"
Источник: собственный рип
Наличие сканов в содержимом раздачи: да
Треклист:
Sonata romantica, Op.3
01. I. Tema y variaciones
02. II. Scherzo: Vif et Gai
03. III. Final: Lent - Allegro
Sonata fantasia, Op.59
04. I. Lento - Allegro molto moderato
05. II. Coral con variaciones: Lento
Rincon magico, Op.97
06. I. Tema y variaciones: Andante
07. II. Scherzo: Allegro vivo
08. III. Lied: Andantino
09. IV. Sonata: Allegretto ritmico
Concierto sin orquesta, Op.88
10. I. Moderato - Allegro moderato
11. II. Molto adagio-

Лог создания рипа

Exact Audio Copy V1.0 beta 1 from 15. November 2010
EAC extraction logfile from 14. January 2016, 19:44
Joaquin Turina / Piano Music Vol.2
Used drive : Optiarc DVD RW AD-7203A Adapter: 4 ID: 1
Read mode : Secure
Utilize accurate stream : Yes
Defeat audio cache : Yes
Make use of C2 pointers : No
Read offset correction : 48
Overread into Lead-In and Lead-Out : No
Fill up missing offset samples with silence : Yes
Delete leading and trailing silent blocks : No
Null samples used in CRC calculations : Yes
Used interface : Native Win32 interface for Win NT & 2000
Used output format : User Defined Encoder
Selected bitrate : 128 kBit/s
Quality : High
Add ID3 tag : No
Command line compressor : C:\Program Files\FLAC\flac.exe
Additional command line options : -T "COMMENT=Ripped by GFox" -8 -V %s
TOC of the extracted CD
Track | Start | Length | Start sector | End sector
---------------------------------------------------------
1 | 0:00.00 | 8:24.25 | 0 | 37824
2 | 8:24.25 | 4:22.25 | 37825 | 57499
3 | 12:46.50 | 7:44.26 | 57500 | 92325
4 | 20:31.01 | 6:02.23 | 92326 | 119498
5 | 26:33.24 | 6:31.25 | 119499 | 148848
6 | 33:04.49 | 9:16.33 | 148849 | 190581
7 | 42:21.07 | 3:52.37 | 190582 | 208018
8 | 46:13.44 | 5:38.09 | 208019 | 233377
9 | 51:51.53 | 5:13.25 | 233378 | 256877
10 | 57:05.03 | 5:38.12 | 256878 | 282239
11 | 62:43.15 | 5:01.60 | 282240 | 304874
Range status and errors
Selected range
Filename D:\EAC\Joaquin Turina - Piano Music Vol.2.wav
Peak level 95.6 %
Extraction speed 0.2 X
Range quality 100.0 %
Test CRC 71955280
Copy CRC 71955280
Copy OK
No errors occurred
AccurateRip summary
Track 1 accurately ripped (confidence 2) [6F327FA7]
Track 2 accurately ripped (confidence 2) [F3B155ED]
Track 3 accurately ripped (confidence 2) [84A9CA7F]
Track 4 accurately ripped (confidence 2) [C65B3348]
Track 5 accurately ripped (confidence 2) [E9D3AF86]
Track 6 accurately ripped (confidence 2) [F4D0A9F7]
Track 7 accurately ripped (confidence 2) [844061D2]
Track 8 accurately ripped (confidence 2) [7E036D44]
Track 9 accurately ripped (confidence 2) [EF29C1A8]
Track 10 accurately ripped (confidence 2) [E156A793]
Track 11 accurately ripped (confidence 2) [19AD3853]
All tracks accurately ripped
End of status report
==== Log checksum 5592F214DED3A3978A11D7206726FA9F01F5FC1A16DC0736D68CC229E2DCD5AA ====
-
-

Vol.3

Жанр: Classical/Piano
Страна-производитель диска: EU
Год издания диска: 2006
Издатель (лейбл): Naxos
Номер по каталогу: 8.557684
Дата записи: 27&28.VIII.2005
Аудиокодек: FLAC
Тип рипа: image+.cue
Битрейт аудио: lossless
Продолжительность: 1:02'44"
Источник: собственный рип
Наличие сканов в содержимом раздачи: да
Треклист:
Sevilla, suite pintoresca, Op.2
01. I. Bajo los naranjos
02. II. El Jueves Santo a medianoche
03. III. La Feria
Mujeres espanolas, primera serie, Op.17
04. I. La madrilena clasica
05. II. La andaluza sentimental
06. III. La morena coqueta
Mujeres espanolas, segunda serie, Op.73
07. I. La gitana enamorada
08. II. La florista
09. III. La senorita que baila
10. IV. La murciana guapa
11. V. La alegre sevillana
Mujeres de Sevilla, Op.89
12. I. La alfarera de Triana
13. II. La mocita del barrio
14. III. La macarena con garbo
15. IV. La cigarrera traviesa
16. V. Mantillas y peinetas-

Лог создания рипа

Exact Audio Copy V1.0 beta 4 from 7. December 2014
EAC extraction logfile from 16. January 2016, 0:01
Joaquin Turina / Piano Music Vol.3
Used drive : TSSTcorpDVDWBD TS-LB23A Adapter: 1 ID: 0
Read mode : Secure
Utilize accurate stream : Yes
Defeat audio cache : Yes
Make use of C2 pointers : No
Read offset correction : 6
Overread into Lead-In and Lead-Out : No
Fill up missing offset samples with silence : Yes
Delete leading and trailing silent blocks : No
Null samples used in CRC calculations : Yes
Used interface : Native Win32 interface for Win NT & 2000
Used output format : User Defined Encoder
Selected bitrate : 128 kBit/s
Quality : High
Add ID3 tag : Yes
Command line compressor : C:\Program Files (x86)\Exact Audio Copy\Flac\flac.exe
Additional command line options : -T "COMMENT=Ripped by GFox" -V -8 %source%
TOC of the extracted CD
Track | Start | Length | Start sector | End sector
---------------------------------------------------------
1 | 0:00.00 | 5:30.49 | 0 | 24798
2 | 5:30.49 | 7:44.55 | 24799 | 59653
3 | 13:15.29 | 4:56.29 | 59654 | 81882
4 | 18:11.58 | 4:26.47 | 81883 | 101879
5 | 22:38.30 | 8:01.66 | 101880 | 138020
6 | 30:40.21 | 5:20.69 | 138021 | 162089
7 | 36:01.15 | 3:34.26 | 162090 | 178165
8 | 39:35.41 | 2:33.71 | 178166 | 189711
9 | 42:09.37 | 2:49.37 | 189712 | 202423
10 | 44:58.74 | 2:22.19 | 202424 | 213092
11 | 47:21.18 | 2:31.20 | 213093 | 224437
12 | 49:52.38 | 2:11.39 | 224438 | 234301
13 | 52:04.02 | 4:04.51 | 234302 | 252652
14 | 56:08.53 | 1:48.07 | 252653 | 260759
15 | 57:56.60 | 2:37.30 | 260760 | 272564
16 | 60:34.15 | 2:09.60 | 272565 | 282299
Range status and errors
Selected range
Filename D:\Downloads\Joaquin Turina - Piano Music Vol.3.wav
Peak level 73.9 %
Extraction speed 1.8 X
Range quality 100.0 %
Test CRC 8FFEE209
Copy CRC 8FFEE209
Copy OK
No errors occurred
AccurateRip summary
Track 1 accurately ripped (confidence 2) [50B767F7] (AR v2)
Track 2 accurately ripped (confidence 2) [86751A2A] (AR v2)
Track 3 accurately ripped (confidence 2) [47501E71] (AR v2)
Track 4 accurately ripped (confidence 2) [6271E4F2] (AR v2)
Track 5 accurately ripped (confidence 2) [ABF8164A] (AR v2)
Track 6 accurately ripped (confidence 2) [386CBCF6] (AR v2)
Track 7 accurately ripped (confidence 2) [0A9F39A2] (AR v2)
Track 8 accurately ripped (confidence 2) [1F867D53] (AR v2)
Track 9 accurately ripped (confidence 2) [A16E8445] (AR v2)
Track 10 accurately ripped (confidence 2) [E63C7EC2] (AR v2)
Track 11 accurately ripped (confidence 2) [7CD8771E] (AR v2)
Track 12 accurately ripped (confidence 2) [CEFF2226] (AR v2)
Track 13 accurately ripped (confidence 2) [34A63DA7] (AR v2)
Track 14 accurately ripped (confidence 2) [93C88B08] (AR v2)
Track 15 accurately ripped (confidence 2) [2B8B4787] (AR v2)
Track 16 accurately ripped (confidence 2) [E00AEDB5] (AR v2)
All tracks accurately ripped
End of status report
==== Log checksum DA414424DEFC04BC9C2C36A1D32566F19A90653ADC9C054DB2AC03EAC8452869 ====
-
-

Vol.4

Жанр: Classical/Piano
Страна-производитель диска: EU
Год издания диска: 2007
Издатель (лейбл): Naxos
Номер по каталогу: 8.570026
Дата записи: 19&20.X.2006
Аудиокодек: FLAC
Тип рипа: image+.cue
Битрейт аудио: lossless
Продолжительность: 1:08'28"
Источник: собственный рип
Наличие сканов в содержимом раздачи: да
Треклист:
Ninerias (Petite Suite), Series 1, Op.21
01. I. Prelude et Fugue
02. II. Ce que l'on voit sur la Giralda
03. III. Defile des soldats de plomb
04. IV. Berceuse
05. V. Danse des poupees
06. VI. ?
07. VII. A la memoire d'un bebe
08. VIII. Jeux
Ninerias (Petite Suite), Series 2, Op.56
09. I. Entree de Conchita
10. II. A l'ecole
11. III. Divertissement
12. IV. Conchita pleure
13. V. Parade
14. VI. Conchita reve
15. VII. Carnaval des enfants
16. VIII. Course feerique
Miniatures, Op.52
17. I. Caminando
18. II. Se acercan los soldados
19. III. La aldea duerme
20. IV. Amanecer
21. V. El mercado
22. VI. Duo sentimental
23. VII. Fiesta
24. VIII. La vuelta
Jardin de ninos, Op.63
25. I. Marche
26. II. L'enfant s'endort
27. III. Boite a musique
28. IV. Cloches
29. V. Petite danse
30. VI. Petite fugue
31. VII. Jeux sur la plage
32. VIII. Final-

Лог создания рипа

Exact Audio Copy V1.0 beta 4 from 7. December 2014
EAC extraction logfile from 16. January 2016, 14:43
Joaquin Turina / Piano Music Vol.4
Used drive : TSSTcorpDVDWBD TS-LB23A Adapter: 1 ID: 0
Read mode : Secure
Utilize accurate stream : Yes
Defeat audio cache : Yes
Make use of C2 pointers : No
Read offset correction : 6
Overread into Lead-In and Lead-Out : No
Fill up missing offset samples with silence : Yes
Delete leading and trailing silent blocks : No
Null samples used in CRC calculations : Yes
Used interface : Native Win32 interface for Win NT & 2000
Used output format : User Defined Encoder
Selected bitrate : 128 kBit/s
Quality : High
Add ID3 tag : Yes
Command line compressor : C:\Program Files (x86)\Exact Audio Copy\Flac\flac.exe
Additional command line options : -T "COMMENT=Ripped by GFox" -V -8 %source%
TOC of the extracted CD
Track | Start | Length | Start sector | End sector
---------------------------------------------------------
1 | 0:00.00 | 2:58.16 | 0 | 13365
2 | 2:58.16 | 4:24.63 | 13366 | 33228
3 | 7:23.04 | 2:21.03 | 33229 | 43806
4 | 9:44.07 | 2:48.69 | 43807 | 56475
5 | 12:33.01 | 2:51.67 | 56476 | 69367
6 | 15:24.68 | 2:57.66 | 69368 | 82708
7 | 18:22.59 | 2:46.72 | 82709 | 95230
8 | 21:09.56 | 3:10.27 | 95231 | 109507
9 | 24:20.08 | 2:13.32 | 109508 | 119514
10 | 26:33.40 | 1:29.72 | 119515 | 126261
11 | 28:03.37 | 0:56.66 | 126262 | 130527
12 | 29:00.28 | 2:39.37 | 130528 | 142489
13 | 31:39.65 | 1:26.67 | 142490 | 149006
14 | 33:06.57 | 3:31.14 | 149007 | 164845
15 | 36:37.71 | 1:13.38 | 164846 | 170358
16 | 37:51.34 | 1:54.54 | 170359 | 178962
17 | 39:46.13 | 1:43.23 | 178963 | 186710
18 | 41:29.36 | 1:06.12 | 186711 | 191672
19 | 42:35.48 | 2:43.65 | 191673 | 203962
20 | 45:19.38 | 1:31.03 | 203963 | 210790
21 | 46:50.41 | 1:02.62 | 210791 | 215502
22 | 47:53.28 | 2:15.15 | 215503 | 225642
23 | 50:08.43 | 1:00.12 | 225643 | 230154
24 | 51:08.55 | 2:21.08 | 230155 | 240737
25 | 53:29.63 | 1:15.09 | 240738 | 246371
26 | 54:44.72 | 2:56.34 | 246372 | 259605
27 | 57:41.31 | 1:06.21 | 259606 | 264576
28 | 58:47.52 | 2:42.05 | 264577 | 276731
29 | 61:29.57 | 1:15.36 | 276732 | 282392
30 | 62:45.18 | 2:42.09 | 282393 | 294551
31 | 65:27.27 | 1:04.12 | 294552 | 299363
32 | 66:31.39 | 1:56.36 | 299364 | 308099
Range status and errors
Selected range
Filename D:\Downloads\Joaquin Turina - Piano Music Vol.4.wav
Peak level 81.1 %
Extraction speed 1.9 X
Range quality 100.0 %
Test CRC F9881CDB
Copy CRC F9881CDB
Copy OK
No errors occurred
AccurateRip summary
Track 1 accurately ripped (confidence 3) [8992AB81] (AR v2)
Track 2 accurately ripped (confidence 3) [6B23E48A] (AR v2)
Track 3 accurately ripped (confidence 3) [BCCC9651] (AR v2)
Track 4 accurately ripped (confidence 3) [B30B624A] (AR v2)
Track 5 accurately ripped (confidence 3) [96DFD2E8] (AR v2)
Track 6 accurately ripped (confidence 3) [D1B23A33] (AR v2)
Track 7 accurately ripped (confidence 3) [8BB5D6A1] (AR v2)
Track 8 accurately ripped (confidence 3) [A7B1108F] (AR v2)
Track 9 accurately ripped (confidence 3) [E5CBDF14] (AR v2)
Track 10 accurately ripped (confidence 3) [14573DF4] (AR v2)
Track 11 accurately ripped (confidence 3) [B2DA2563] (AR v2)
Track 12 accurately ripped (confidence 3) [710D89AD] (AR v2)
Track 13 accurately ripped (confidence 3) [E239F3CD] (AR v2)
Track 14 accurately ripped (confidence 3) [8F0A1DFA] (AR v2)
Track 15 accurately ripped (confidence 3) [F761451F] (AR v2)
Track 16 accurately ripped (confidence 3) [4C62DAFE] (AR v2)
Track 17 accurately ripped (confidence 3) [65580344] (AR v2)
Track 18 accurately ripped (confidence 3) [6EFCE821] (AR v2)
Track 19 accurately ripped (confidence 3) [D4160318] (AR v2)
Track 20 accurately ripped (confidence 3) [2B89E40B] (AR v2)
Track 21 accurately ripped (confidence 3) [1919D525] (AR v2)
Track 22 accurately ripped (confidence 3) [712F43B0] (AR v2)
Track 23 accurately ripped (confidence 3) [82FB7021] (AR v2)
Track 24 accurately ripped (confidence 3) [A0685613] (AR v2)
Track 25 accurately ripped (confidence 3) [85935659] (AR v2)
Track 26 accurately ripped (confidence 3) [5B05ECD1] (AR v2)
Track 27 accurately ripped (confidence 3) [BC27C991] (AR v2)
Track 28 accurately ripped (confidence 3) [EC3482A2] (AR v2)
Track 29 accurately ripped (confidence 3) [6A4F6184] (AR v2)
Track 30 accurately ripped (confidence 3) [9A485D35] (AR v2)
Track 31 accurately ripped (confidence 3) [7EDF5BA1] (AR v2)
Track 32 accurately ripped (confidence 2) [574C1E80] (AR v2)
All tracks accurately ripped
End of status report
==== Log checksum 518A22EF017C3C6AC8C318C60C0DA094CFAA8B5CF1E3A2EA1998D3656DB6BDF8 ====
-
-

Vol.5

Жанр: Classical/Piano
Страна-производитель диска: Germany
Год издания диска: 2009
Издатель (лейбл): Naxos
Номер по каталогу: 8.570370
Дата записи: 11&12.X.2007
Аудиокодек: FLAC
Тип рипа: image+.cue
Битрейт аудио: lossless
Продолжительность: 1:13'03"
Источник: собственный рип
Наличие сканов в содержимом раздачи: да
Треклист:
Contes d'Espagne, Series 1, Op.20
01. I. Devant la tour du Clavero
02. II. Une vieille eglise a Logrono
03. III. Miramar
04. IV. Dans les jaedins de Murcia
05. V. Le chemin de la Alhambra
06. VI. La Caleta
07. VII. Rompeolas
Contes d'Espagne, Series 2, Op.47
08. I. Cordoue en fete
09. II. Chansons dans la nuit
10. III. Chanson mauresque
11. IV. Les buveurs de manzanilla
12. V. Promenade
13. VI. La Mosquee
14. VII. Tournoi chevalesque
Souvenirs de l'Ancienne Espagne, Op.48
15. I. L'eternelle Carmen
16. II. Habanera
17. III. Don Juan
18. IV. Estudiantina
Silhouettes, Op.70
19. I. L'Aqueduc (Segovia)
20. II. La tour de la Vela (Grenade)
21. III. La Puerta de Sol (Toledo)
22. IV. La Tour de l'Or (Seville)
23. V. Le Phare de Cadix-

Лог создания рипа

Exact Audio Copy V1.0 beta 4 from 7. December 2014
EAC extraction logfile from 16. January 2016, 15:58
Joaquin Turina / Piano Music Vol.5
Used drive : TSSTcorpDVDWBD TS-LB23A Adapter: 1 ID: 0
Read mode : Secure
Utilize accurate stream : Yes
Defeat audio cache : Yes
Make use of C2 pointers : No
Read offset correction : 6
Overread into Lead-In and Lead-Out : No
Fill up missing offset samples with silence : Yes
Delete leading and trailing silent blocks : No
Null samples used in CRC calculations : Yes
Used interface : Native Win32 interface for Win NT & 2000
Used output format : User Defined Encoder
Selected bitrate : 128 kBit/s
Quality : High
Add ID3 tag : Yes
Command line compressor : C:\Program Files (x86)\Exact Audio Copy\Flac\flac.exe
Additional command line options : -T "COMMENT=Ripped by GFox" -V -8 %source%
TOC of the extracted CD
Track | Start | Length | Start sector | End sector
---------------------------------------------------------
1 | 0:00.00 | 3:12.39 | 0 | 14438
2 | 3:12.39 | 4:39.08 | 14439 | 35371
3 | 7:51.47 | 2:22.62 | 35372 | 46083
4 | 10:14.34 | 2:47.74 | 46084 | 58682
5 | 13:02.33 | 2:52.68 | 58683 | 71650
6 | 15:55.26 | 3:02.66 | 71651 | 85366
7 | 18:58.17 | 5:27.59 | 85367 | 109950
8 | 24:26.01 | 2:09.24 | 109951 | 119649
9 | 26:35.25 | 3:51.18 | 119650 | 136992
10 | 30:26.43 | 1:37.42 | 136993 | 144309
11 | 32:04.10 | 2:06.52 | 144310 | 153811
12 | 34:10.62 | 2:04.38 | 153812 | 163149
13 | 36:15.25 | 4:14.30 | 163150 | 182229
14 | 40:29.55 | 2:52.00 | 182230 | 195129
15 | 43:21.55 | 3:07.38 | 195130 | 209192
16 | 46:29.18 | 4:16.59 | 209193 | 228451
17 | 50:46.02 | 4:07.54 | 228452 | 247030
18 | 54:53.56 | 3:12.36 | 247031 | 261466
19 | 58:06.17 | 4:38.16 | 261467 | 282332
20 | 62:44.33 | 2:48.38 | 282333 | 294970
21 | 65:32.71 | 2:17.52 | 294971 | 305297
22 | 67:50.48 | 2:57.15 | 305298 | 318587
23 | 70:47.63 | 2:15.12 | 318588 | 328724
Range status and errors
Selected range
Filename D:\Downloads\Joaquin Turina - Piano Music Vol.5.wav
Peak level 100.0 %
Extraction speed 1.9 X
Range quality 100.0 %
Test CRC D1EF787A
Copy CRC D1EF787A
Copy OK
No errors occurred
AccurateRip summary
Track 1 accurately ripped (confidence 2) [C7BC1315] (AR v2)
Track 2 accurately ripped (confidence 2) [857C48BC] (AR v2)
Track 3 accurately ripped (confidence 2) [DEDEEECA] (AR v2)
Track 4 accurately ripped (confidence 2) [1F31B49D] (AR v2)
Track 5 accurately ripped (confidence 2) [31E46ED6] (AR v2)
Track 6 accurately ripped (confidence 2) [15C0BDC0] (AR v2)
Track 7 accurately ripped (confidence 2) [1139FEFB] (AR v2)
Track 8 accurately ripped (confidence 2) [B8124FFC] (AR v2)
Track 9 accurately ripped (confidence 2) [E5745E01] (AR v2)
Track 10 accurately ripped (confidence 2) [340052A0] (AR v2)
Track 11 accurately ripped (confidence 2) [FC910C0E] (AR v2)
Track 12 accurately ripped (confidence 2) [A18F88D1] (AR v2)
Track 13 accurately ripped (confidence 2) [59202BD1] (AR v2)
Track 14 accurately ripped (confidence 2) [397493F1] (AR v2)
Track 15 accurately ripped (confidence 2) [5BE8C128] (AR v2)
Track 16 accurately ripped (confidence 2) [4821CE87] (AR v2)
Track 17 accurately ripped (confidence 2) [C2C0101A] (AR v2)
Track 18 accurately ripped (confidence 2) [556FFEC0] (AR v2)
Track 19 accurately ripped (confidence 2) [50E4FF84] (AR v2)
Track 20 accurately ripped (confidence 2) [BE95424D] (AR v2)
Track 21 accurately ripped (confidence 2) [7550AA31] (AR v2)
Track 22 accurately ripped (confidence 2) [7127D3FF] (AR v2)
Track 23 accurately ripped (confidence 2) [7D63B415] (AR v2)
All tracks accurately ripped
End of status report
==== Log checksum CDE982930895F771568675EDB5337FC4D67ED6AC289A05D76F23AC0444F4E8CA ====
-
-

Vol.6

Жанр: Classical/Piano
Страна-производитель диска: Germany
Год издания диска: 2010
Издатель (лейбл): Naxos
Номер по каталогу: 8.572141
Дата записи: 14.II&21.III.2009
Аудиокодек: FLAC
Тип рипа: image+.cue
Битрейт аудио: lossless
Продолжительность: 1:10'58"
Источник: собственный рип
Наличие сканов в содержимом раздачи: да
Треклист:
Ritmos (Fantasia coreografica), Op.43
01. I. Preludio
02. II. Danza lenta
03. III. Vals tragico
04. IV. Garrotin
05. V. Intermedio
06. VI. Danza exotica
Fantasia sobre 5 notas, Op.83
07. I. Preludio
08. II. Tocata y fuga
09. III. Coral con variaciones
Fantasia italiana, Op.75
10. I. Vision fantastica
11. II. Driadas
12. III. Napoles
13. Fantasia cinematografica, Op.103
Fantasia del reloj, Op.94
14. I. Unos minutos ante el Cristo
15. II. Las horas del rincon magico
16. III. Las horas de la manzanilla
Poema fantastico, Op.98
17. I. En el hall del hotel
18. II. Viejas calles madrilenas
19. III. Encrucijada
20. IV. Tarde de cine-

Лог создания рипа

Exact Audio Copy V1.0 beta 4 from 7. December 2014
EAC extraction logfile from 17. January 2016, 13:40
Joaquin Turina / Piano Music Vol.6
Used drive : TSSTcorpDVDWBD TS-LB23A Adapter: 1 ID: 0
Read mode : Secure
Utilize accurate stream : Yes
Defeat audio cache : Yes
Make use of C2 pointers : No
Read offset correction : 6
Overread into Lead-In and Lead-Out : No
Fill up missing offset samples with silence : Yes
Delete leading and trailing silent blocks : No
Null samples used in CRC calculations : Yes
Used interface : Native Win32 interface for Win NT & 2000
Used output format : User Defined Encoder
Selected bitrate : 128 kBit/s
Quality : High
Add ID3 tag : Yes
Command line compressor : C:\Program Files (x86)\Exact Audio Copy\Flac\flac.exe
Additional command line options : -T "COMMENT=Ripped by GFox" -V -8 %source%
TOC of the extracted CD
Track | Start | Length | Start sector | End sector
---------------------------------------------------------
1 | 0:00.00 | 1:58.08 | 0 | 8857
2 | 1:58.08 | 1:53.57 | 8858 | 17389
3 | 3:51.65 | 2:40.26 | 17390 | 29415
4 | 6:32.16 | 2:47.09 | 29416 | 41949
5 | 9:19.25 | 1:23.41 | 41950 | 48215
6 | 10:42.66 | 3:04.50 | 48216 | 62065
7 | 13:47.41 | 2:57.38 | 62066 | 75378
8 | 16:45.04 | 3:39.47 | 75379 | 91850
9 | 20:24.51 | 5:26.40 | 91851 | 116340
10 | 25:51.16 | 5:35.28 | 116341 | 141493
11 | 31:26.44 | 2:19.25 | 141494 | 151943
12 | 33:45.69 | 3:58.10 | 151944 | 169803
13 | 37:44.04 | 8:16.41 | 169804 | 207044
14 | 46:00.45 | 2:53.56 | 207045 | 220075
15 | 48:54.26 | 4:07.23 | 220076 | 238623
16 | 53:01.49 | 2:20.31 | 238624 | 249154
17 | 55:22.05 | 4:50.64 | 249155 | 270968
18 | 60:12.69 | 3:41.57 | 270969 | 287600
19 | 63:54.51 | 2:46.71 | 287601 | 300121
20 | 66:41.47 | 4:16.69 | 300122 | 319390
Range status and errors
Selected range
Filename D:\Downloads\Joaquin Turina - Piano Music Vol.6.wav
Peak level 99.0 %
Extraction speed 1.9 X
Range quality 99.9 %
Test CRC 48F74F99
Copy CRC 48F74F99
Copy OK
No errors occurred
AccurateRip summary
Track 1 accurately ripped (confidence 2) [7F146291] (AR v2)
Track 2 accurately ripped (confidence 2) [8673CE6B] (AR v2)
Track 3 accurately ripped (confidence 2) [B120ACE2] (AR v2)
Track 4 accurately ripped (confidence 2) [4DEFC7B3] (AR v2)
Track 5 accurately ripped (confidence 2) [89898EB9] (AR v2)
Track 6 accurately ripped (confidence 2) [6806DAC8] (AR v2)
Track 7 accurately ripped (confidence 2) [9B3F7375] (AR v2)
Track 8 accurately ripped (confidence 2) [22740204] (AR v2)
Track 9 accurately ripped (confidence 2) [06CDF8BB] (AR v2)
Track 10 accurately ripped (confidence 2) [91880436] (AR v2)
Track 11 accurately ripped (confidence 2) [F3A4E0B2] (AR v2)
Track 12 accurately ripped (confidence 2) [35D071DE] (AR v2)
Track 13 accurately ripped (confidence 2) [29294D90] (AR v2)
Track 14 accurately ripped (confidence 2) [006C2E0D] (AR v2)
Track 15 accurately ripped (confidence 2) [EF7BECA6] (AR v2)
Track 16 accurately ripped (confidence 2) [2491FC56] (AR v2)
Track 17 accurately ripped (confidence 2) [0B8C663B] (AR v2)
Track 18 accurately ripped (confidence 2) [6C8668A3] (AR v2)
Track 19 accurately ripped (confidence 2) [01C347E7] (AR v2)
Track 20 accurately ripped (confidence 2) [36D3D248] (AR v2)
All tracks accurately ripped
End of status report
==== Log checksum E2B3B061CF8371058F1358D1B2D58F12C9498FC80C824F4EE014912BA5A92214 ====
-
-

Vol.7

Жанр: Classical/Piano
Страна-производитель диска: Germany
Год издания диска: 2011
Издатель (лейбл): Naxos
Номер по каталогу: 8.572455
Дата записи: 7&8.V.2010
Аудиокодек: FLAC
Тип рипа: image+.cue
Битрейт аудио: lossless
Продолжительность: 1:06'07"
Источник: собственный рип
Наличие сканов в содержимом раздачи: да
Треклист:
Album de viaje, Op.15
01. I. Retrato
02. II. El casino de Algeciras
03. III. Gibraltar
04. IV. Paseo nocturno
05. V. Fiesta mora en Tanger
Viaje maritimo, Op.49
06. I. Luz en el mar
07. II. En fiesta
08. III. Llegada al puerto
Evocaciones, Op.46
09. I. Paisaje
10. II. Mar
11. III. Sardana
Mallorca, Op.44
12. I. Las cuevas del Dragon
13. II. Noche en la bahia de Palma
14. III. Por la carretera en auto
Tarjetas postales, Op.58
15. I. Danza vasca
16. II. Ramblas de Barcelona
17. III. Madrid
18. IV. Paisaje granadino
19. V. Romeria-

Лог создания рипа

Exact Audio Copy V1.0 beta 4 from 7. December 2014
EAC extraction logfile from 23. January 2016, 15:20
Joaquin Turina / Piano Music Vol.7
Used drive : TSSTcorpDVDWBD TS-LB23A Adapter: 1 ID: 0
Read mode : Secure
Utilize accurate stream : Yes
Defeat audio cache : Yes
Make use of C2 pointers : No
Read offset correction : 6
Overread into Lead-In and Lead-Out : No
Fill up missing offset samples with silence : Yes
Delete leading and trailing silent blocks : No
Null samples used in CRC calculations : Yes
Used interface : Native Win32 interface for Win NT & 2000
Used output format : User Defined Encoder
Selected bitrate : 128 kBit/s
Quality : High
Add ID3 tag : Yes
Command line compressor : C:\Program Files (x86)\Exact Audio Copy\Flac\flac.exe
Additional command line options : -T "COMMENT=Ripped by GFox" -V -8 %source%
TOC of the extracted CD
Track | Start | Length | Start sector | End sector
---------------------------------------------------------
1 | 0:00.00 | 2:11.18 | 0 | 9842
2 | 2:11.18 | 4:46.51 | 9843 | 31343
3 | 6:57.69 | 3:46.19 | 31344 | 48312
4 | 10:44.13 | 3:46.44 | 48313 | 65306
5 | 14:30.57 | 4:02.52 | 65307 | 83508
6 | 18:33.34 | 4:51.55 | 83509 | 105388
7 | 23:25.14 | 2:28.54 | 105389 | 116542
8 | 25:53.68 | 3:24.42 | 116543 | 131884
9 | 29:18.35 | 4:20.18 | 131885 | 151402
10 | 33:38.53 | 3:37.25 | 151403 | 167702
11 | 37:16.03 | 2:44.71 | 167703 | 180073
12 | 40:00.74 | 6:36.62 | 180074 | 209835
13 | 46:37.61 | 4:42.71 | 209836 | 231056
14 | 51:20.57 | 3:57.73 | 231057 | 248904
15 | 55:18.55 | 2:01.56 | 248905 | 258035
16 | 57:20.36 | 1:42.06 | 258036 | 265691
17 | 59:02.42 | 1:49.57 | 265692 | 273923
18 | 60:52.24 | 3:17.32 | 273924 | 288730
19 | 64:09.56 | 1:57.19 | 288731 | 297524
Range status and errors
Selected range
Filename D:\Downloads\Joaquin Turina - Piano Music Vol.7.wav
Peak level 98.4 %
Extraction speed 1.6 X
Range quality 100.0 %
Test CRC 0C9AFF0A
Copy CRC 0C9AFF0A
Copy OK
No errors occurred
AccurateRip summary
Track 1 accurately ripped (confidence 2) [5472D312] (AR v2)
Track 2 accurately ripped (confidence 2) [272F8FED] (AR v2)
Track 3 accurately ripped (confidence 2) [DF884357] (AR v2)
Track 4 accurately ripped (confidence 2) [A2814DC5] (AR v2)
Track 5 accurately ripped (confidence 2) [3ED0C07F] (AR v2)
Track 6 accurately ripped (confidence 2) [0EF7D1AF] (AR v2)
Track 7 accurately ripped (confidence 2) [51ED9798] (AR v2)
Track 8 accurately ripped (confidence 2) [19642E03] (AR v2)
Track 9 accurately ripped (confidence 2) [F307C046] (AR v2)
Track 10 accurately ripped (confidence 2) [CF8A2C06] (AR v2)
Track 11 accurately ripped (confidence 2) [6199B216] (AR v2)
Track 12 accurately ripped (confidence 2) [52392DAE] (AR v2)
Track 13 accurately ripped (confidence 2) [DC59F67B] (AR v2)
Track 14 accurately ripped (confidence 2) [6154541E] (AR v2)
Track 15 accurately ripped (confidence 2) [14262635] (AR v2)
Track 16 accurately ripped (confidence 2) [73CAA88F] (AR v2)
Track 17 accurately ripped (confidence 2) [42BAAD05] (AR v2)
Track 18 accurately ripped (confidence 2) [48FEFD3B] (AR v2)
Track 19 accurately ripped (confidence 2) [D6AC0D1D] (AR v2)
All tracks accurately ripped
End of status report
==== Log checksum C773417CF96FA24679D186AB5E547D6212C3D50037C3905DEE9624014B07A85C ====
-
-

Vol.8

Жанр: Classical/Piano
Страна-производитель диска: Germany
Год издания диска: 2012
Издатель (лейбл): Naxos
Номер по каталогу: 8.572682
Дата записи: 26&27.II.2011
Аудиокодек: FLAC
Тип рипа: image+.cue
Битрейт аудио: lossless
Продолжительность: 1:02'25"
Источник: собственный рип
Наличие сканов в содержимом раздачи: да
Треклист:
Jardins d'Andalousie, Op.31
01. La Muse de Sevilla
02. I. Au jardin des Capucins
03. II. Aux jardins de l'Alcazar
04. III. Dans le parc
05. Le Quartier de Santa Cruz (Variations rythmiques), Op.33
Las musas de Andalucia, Op.93 (excerpts)
06. I. Clio: A las puertas de la Rabida
07. VII. Urania: Farruca fugada
08. VIII. Terpsicore: Minue
En el cortijo (Impresiones andaluzas), Op.92
09. I. La noche en el campo
10. II. A la sombra del caserio
11. III. Horizontes y llanuras
12. IV. Caballistas-

Лог создания рипа

Exact Audio Copy V1.0 beta 1 from 15. November 2010
EAC extraction logfile from 23. January 2016, 19:03
Joaquin Turina / Piano Music Vol.8
Used drive : Optiarc DVD RW AD-7203A Adapter: 4 ID: 1
Read mode : Secure
Utilize accurate stream : Yes
Defeat audio cache : Yes
Make use of C2 pointers : No
Read offset correction : 48
Overread into Lead-In and Lead-Out : No
Fill up missing offset samples with silence : Yes
Delete leading and trailing silent blocks : No
Null samples used in CRC calculations : Yes
Used interface : Native Win32 interface for Win NT & 2000
Used output format : User Defined Encoder
Selected bitrate : 128 kBit/s
Quality : High
Add ID3 tag : No
Command line compressor : C:\Program Files\FLAC\flac.exe
Additional command line options : -T "COMMENT=Ripped by GFox" -8 -V %s
TOC of the extracted CD
Track | Start | Length | Start sector | End sector
---------------------------------------------------------
1 | 0:00.00 | 1:54.72 | 0 | 8621
2 | 1:54.72 | 4:01.39 | 8622 | 26735
3 | 5:56.36 | 7:47.54 | 26736 | 61814
4 | 13:44.15 | 6:00.69 | 61815 | 88883
5 | 19:45.09 | 18:00.49 | 88884 | 169932
6 | 37:45.58 | 4:15.49 | 169933 | 189106
7 | 42:01.32 | 2:53.24 | 189107 | 202105
8 | 44:54.56 | 3:03.73 | 202106 | 215903
9 | 47:58.54 | 5:01.22 | 215904 | 238500
10 | 53:00.01 | 2:28.69 | 238501 | 249669
11 | 55:28.70 | 4:37.05 | 249670 | 270449
12 | 60:06.00 | 2:19.00 | 270450 | 280874
Range status and errors
Selected range
Filename D:\EAC\Joaquin Turina - Piano Music Vol.8.wav
Peak level 93.1 %
Extraction speed 0.1 X
Range quality 100.0 %
Test CRC 25D8022D
Copy CRC 25D8022D
Copy OK
No errors occurred
AccurateRip summary
Track 1 accurately ripped (confidence 2) [36B29588]
Track 2 accurately ripped (confidence 2) [B7455B86]
Track 3 accurately ripped (confidence 2) [4BC4DA96]
Track 4 accurately ripped (confidence 2) [89199238]
Track 5 accurately ripped (confidence 2) [BB44AF06]
Track 6 accurately ripped (confidence 2) [A3A31D2A]
Track 7 accurately ripped (confidence 2) [5444B281]
Track 8 accurately ripped (confidence 2) [60C790A7]
Track 9 accurately ripped (confidence 2) [55EED9F2]
Track 10 accurately ripped (confidence 2) [5FAE67D7]
Track 11 accurately ripped (confidence 2) [27ED7D6A]
Track 12 accurately ripped (confidence 2) [1B7833AD]
All tracks accurately ripped
End of status report
==== Log checksum 362F647D5CAD6E2F167D84F2462049944CEA27246C9C2524AF76D3AACAA0E565 ====
-
-

Vol.9

Жанр: Classical/Piano
Страна-производитель диска: Germany
Год издания диска: 2013
Издатель (лейбл): Naxos
Номер по каталогу: 8.572915
Дата записи: 27&28.VII.2012
Аудиокодек: FLAC
Тип рипа: image+.cue
Битрейт аудио: lossless
Продолжительность: 1:01'28"
Источник: собственный рип
Наличие сканов в содержимом раздачи: да
Треклист:
Coins de Seville, Op.
01. I. Soir d'ete sur la terrasse
02. II. Rondes d'enfants
03. III. Danse de 'seises' dans la cathedrale
04. IV. A los toros
05. La leyenda de la Giralda, Op.40
Por las calles de Sevilla, Op.96
06. I. Reflejos de la torre
07. II. Ante la Virgen de la Merced
08. III. La calle de las Sierpes
Contemplacion, Op.99
09. I. Ante 'La Anunciacion' de Fra Angelico
10. II. Ante 'La Dama de Elche'
11. III. Ante 'Las lanzas' de Velazquez
Desde mi terraza, Op.104
12. I. A la sombra del Mucharabieh
13. II. Armonias de la ciudad
14. III. Sinfonia de flores-

Лог создания рипа

Exact Audio Copy V1.0 beta 4 from 7. December 2014
EAC extraction logfile from 23. January 2016, 23:15
Joaquin Turina / Piano Music Vol.9
Used drive : TSSTcorpDVDWBD TS-LB23A Adapter: 1 ID: 0
Read mode : Secure
Utilize accurate stream : Yes
Defeat audio cache : Yes
Make use of C2 pointers : No
Read offset correction : 6
Overread into Lead-In and Lead-Out : No
Fill up missing offset samples with silence : Yes
Delete leading and trailing silent blocks : No
Null samples used in CRC calculations : Yes
Used interface : Native Win32 interface for Win NT & 2000
Used output format : User Defined Encoder
Selected bitrate : 128 kBit/s
Quality : High
Add ID3 tag : Yes
Command line compressor : C:\Program Files (x86)\Exact Audio Copy\Flac\flac.exe
Additional command line options : -T "COMMENT=Ripped by GFox" -V -8 %source%
TOC of the extracted CD
Track | Start | Length | Start sector | End sector
---------------------------------------------------------
1 | 0:00.00 | 4:06.54 | 0 | 18503
2 | 4:06.54 | 3:14.46 | 18504 | 33099
3 | 7:21.25 | 4:12.34 | 33100 | 52033
4 | 11:33.59 | 3:00.19 | 52034 | 65552
5 | 14:34.03 | 12:46.30 | 65553 | 123032
6 | 27:20.33 | 3:54.74 | 123033 | 140656
7 | 31:15.32 | 5:26.40 | 140657 | 165146
8 | 36:41.72 | 1:40.40 | 165147 | 172686
9 | 38:22.37 | 4:30.53 | 172687 | 192989
10 | 42:53.15 | 3:32.25 | 192990 | 208914
11 | 46:25.40 | 5:21.61 | 208915 | 233050
12 | 51:47.26 | 4:29.22 | 233051 | 253247
13 | 56:16.48 | 2:38.28 | 253248 | 265125
14 | 58:55.01 | 2:32.74 | 265126 | 276599
Range status and errors
Selected range
Filename D:\Downloads\Joaquin Turina - Piano Music Vol.9.wav
Peak level 100.0 %
Extraction speed 1.7 X
Range quality 100.0 %
Test CRC 801048D5
Copy CRC 801048D5
Copy OK
No errors occurred
AccurateRip summary
Track 1 accurately ripped (confidence 1) [13CD96C7] (AR v2)
Track 2 accurately ripped (confidence 1) [34C6AF9F] (AR v2)
Track 3 accurately ripped (confidence 1) [4F6A24EC] (AR v2)
Track 4 accurately ripped (confidence 1) [6244656A] (AR v2)
Track 5 accurately ripped (confidence 1) [0535D80B] (AR v2)
Track 6 accurately ripped (confidence 1) [819D33A3] (AR v2)
Track 7 accurately ripped (confidence 1) [4C1FD3C8] (AR v2)
Track 8 accurately ripped (confidence 1) [E6F5676B] (AR v2)
Track 9 accurately ripped (confidence 1) [F3D22375] (AR v2)
Track 10 accurately ripped (confidence 1) [5F58573B] (AR v2)
Track 11 accurately ripped (confidence 1) [6F8769CE] (AR v2)
Track 12 accurately ripped (confidence 1) [5E8466D7] (AR v2)
Track 13 accurately ripped (confidence 1) [C5FF8F26] (AR v2)
Track 14 cannot be verified as accurate (confidence 1) [18875D09], AccurateRip returned [D2F0A3BC] (AR v2)
13 трек(и) скопированы точно
1 трек(и) не удалось проверить на точность
Some tracks could not be verified as accurate
End of status report
==== Log checksum C3C5B146EDBC10D5D11D63945905078B20132FD505E0003B1D402F880732DB94 ====
-
-

Vol.10

Жанр: Classical/Piano
Страна-производитель диска: Germany
Год издания диска: 2015
Издатель (лейбл): Naxos
Номер по каталогу: 8.573183
Дата записи: 12&13.X.2013
Аудиокодек: FLAC
Тип рипа: image+.cue
Битрейт аудио: lossless
Продолжительность: 1:04'05"
Источник: собственный рип
Наличие сканов в содержимом раздачи: да
Треклист:
Tocata y fuga, Op.50
01. I. Tocata
02. II. Fuga
Partita, Op.57
03. I. Preludio
04. II. Zarabanda
05. III. Capricho
06. IV. Introduccion y Giga
07. Pieza romantica, Op.64
El castillo de Almodovar, Op.65
08. I. Silueta nocturna
09. II. Evocacion medieval
10. III. A plena luz
Rincones de Sanlucar, Op.78
11. I. La senorita Maria
12. II. La fuente de las piletas
13. III. El portico de Santo Domingo
14. IV. Subida al Barrio Alto
Preludios, Op.80
15. I. Adagio
16. II. Allegretto
17. III. Allegro giusto
18. IV. Allegretto
19. V. Adagio - Allegro vivo-

Лог создания рипа

Exact Audio Copy V1.0 beta 4 from 7. December 2014
EAC extraction logfile from 30. January 2016, 12:17
Joaquin Turina / Piano Music Vol.10
Used drive : TSSTcorpDVDWBD TS-LB23A Adapter: 1 ID: 0
Read mode : Secure
Utilize accurate stream : Yes
Defeat audio cache : Yes
Make use of C2 pointers : No
Read offset correction : 6
Overread into Lead-In and Lead-Out : No
Fill up missing offset samples with silence : Yes
Delete leading and trailing silent blocks : No
Null samples used in CRC calculations : Yes
Used interface : Native Win32 interface for Win NT & 2000
Used output format : User Defined Encoder
Selected bitrate : 128 kBit/s
Quality : High
Add ID3 tag : Yes
Command line compressor : C:\Program Files (x86)\Exact Audio Copy\Flac\flac.exe
Additional command line options : -T "COMMENT=Ripped by GFox" -V -8 %source%
TOC of the extracted CD
Track | Start | Length | Start sector | End sector
---------------------------------------------------------
1 | 0:00.04 | 4:04.60 | 4 | 18363
2 | 4:04.64 | 4:46.00 | 18364 | 39813
3 | 8:50.64 | 3:02.00 | 39814 | 53463
4 | 11:52.64 | 4:48.00 | 53464 | 75063
5 | 16:40.64 | 1:42.00 | 75064 | 82713
6 | 18:22.64 | 3:20.00 | 82714 | 97713
7 | 21:42.64 | 6:46.00 | 97714 | 128163
8 | 28:28.64 | 5:58.00 | 128164 | 155013
9 | 34:26.64 | 3:48.00 | 155014 | 172113
10 | 38:14.64 | 3:26.00 | 172114 | 187563
11 | 41:40.64 | 3:21.00 | 187564 | 202638
12 | 45:01.64 | 2:09.00 | 202639 | 212313
13 | 47:10.64 | 4:12.00 | 212314 | 231213
14 | 51:22.64 | 2:17.00 | 231214 | 241488
15 | 53:39.64 | 2:48.00 | 241489 | 254088
16 | 56:27.64 | 2:02.00 | 254089 | 263238
17 | 58:29.64 | 1:38.00 | 263239 | 270588
18 | 60:07.64 | 1:32.00 | 270589 | 277488
19 | 61:39.64 | 2:25.15 | 277489 | 288378
Range status and errors
Selected range
Filename D:\Downloads\Joaquin Turina - Piano Music Vol.10.wav
Peak level 100.0 %
Extraction speed 1.8 X
Range quality 100.0 %
Test CRC 9222C590
Copy CRC 9222C590
Copy OK
No errors occurred
AccurateRip summary
Track 1 not present in database
Track 2 not present in database
Track 3 not present in database
Track 4 not present in database
Track 5 not present in database
Track 6 not present in database
Track 7 not present in database
Track 8 not present in database
Track 9 not present in database
Track 10 not present in database
Track 11 not present in database
Track 12 not present in database
Track 13 not present in database
Track 14 not present in database
Track 15 not present in database
Track 16 not present in database
Track 17 not present in database
Track 18 not present in database
Track 19 not present in database
None of the tracks are present in the AccurateRip database
End of status report
==== Log checksum 523E2DAB77B872CB07DD726FD3A8AFADFF4AFC986CFC4FC7B591A3070ED8D825 ====
-
-

Vol.11

Жанр: Classical/Piano
Страна-производитель диска: Germany
Год издания диска: 2015
Издатель (лейбл): Naxos
Номер по каталогу: 8.573401
Дата записи: 27&28.IX.2014
Аудиокодек: FLAC
Тип рипа: image+.cue
Битрейт аудио: lossless
Продолжительность: 1:00'28"
Источник: собственный рип
Наличие сканов в содержимом раздачи: да
Треклист:
Verbena madrilena, Op.42
01. I. La Verbena
02. II. Columpios
03. III. Caballitos
04. IV. Cortejo procesional
05. V. Baile castizo
En la zapateria, Op.71
06. I. Hans Sachs
07. II. Los brodequines de la marquesa
08. III. Calzados de campesinos
09. IV. Sandalias griegas
10. V. Los zapatos de la bailarina
11. VI. Los zapatos de una mujer bonita
12. VII. Las zapatillas del torero
Linterna magica, Op.101
13. I. Preludio
14. II. El misterio del jardin
15. III. Vals romantico
El circo, Op.68
16. I. Trompeteria
17. II. Equilibristas
18. III. Amazona
19. IV. El perro sabio
20. V. Payasos
21. VI. Trapecios volantes
Radio Madrid, Op.62
22. Prologo
23. Retransmision I. Los estudiantes de Santiago
24. Retransmision II. Carretera castellana
25. Retransmision III. Fiesta en Sevilla-

Лог создания рипа

Exact Audio Copy V1.0 beta 4 from 7. December 2014
EAC extraction logfile from 30. January 2016, 14:33
Joaquin Turina / Piano Music Vol.11
Used drive : TSSTcorpDVDWBD TS-LB23A Adapter: 1 ID: 0
Read mode : Secure
Utilize accurate stream : Yes
Defeat audio cache : Yes
Make use of C2 pointers : No
Read offset correction : 6
Overread into Lead-In and Lead-Out : No
Fill up missing offset samples with silence : Yes
Delete leading and trailing silent blocks : No
Null samples used in CRC calculations : Yes
Used interface : Native Win32 interface for Win NT & 2000
Used output format : User Defined Encoder
Selected bitrate : 128 kBit/s
Quality : High
Add ID3 tag : Yes
Command line compressor : C:\Program Files (x86)\Exact Audio Copy\Flac\flac.exe
Additional command line options : -T "COMMENT=Ripped by GFox" -V -8 %source%
TOC of the extracted CD
Track | Start | Length | Start sector | End sector
---------------------------------------------------------
1 | 0:00.00 | 2:16.38 | 0 | 10237
2 | 2:16.38 | 4:46.40 | 10238 | 31727
3 | 7:03.03 | 3:26.70 | 31728 | 47247
4 | 10:29.73 | 5:53.29 | 47248 | 73751
5 | 16:23.27 | 3:53.41 | 73752 | 91267
6 | 20:16.68 | 1:08.01 | 91268 | 96368
7 | 21:24.69 | 1:38.26 | 96369 | 103744
8 | 23:03.20 | 1:21.36 | 103745 | 109855
9 | 24:24.56 | 2:08.38 | 109856 | 119493
10 | 26:33.19 | 1:09.23 | 119494 | 124691
11 | 27:42.42 | 1:55.32 | 124692 | 133348
12 | 29:37.74 | 1:33.54 | 133349 | 140377
13 | 31:11.53 | 3:07.46 | 140378 | 154448
14 | 34:19.24 | 3:51.50 | 154449 | 171823
15 | 38:10.74 | 2:09.25 | 171824 | 181523
16 | 40:20.24 | 1:28.33 | 181524 | 188156
17 | 41:48.57 | 1:29.36 | 188157 | 194867
18 | 43:18.18 | 1:50.72 | 194868 | 203189
19 | 45:09.15 | 1:17.38 | 203190 | 209002
20 | 46:26.53 | 1:34.31 | 209003 | 216083
21 | 48:01.09 | 2:11.03 | 216084 | 225911
22 | 50:12.12 | 3:01.28 | 225912 | 239514
23 | 53:13.40 | 2:02.12 | 239515 | 248676
24 | 55:15.52 | 3:01.09 | 248677 | 262260
25 | 58:16.61 | 2:11.14 | 262261 | 272099
Range status and errors
Selected range
Filename D:\Downloads\Joaquin Turina - Piano Music Vol.11.wav
Peak level 94.5 %
Extraction speed 1.7 X
Range quality 100.0 %
Test CRC BBD6DB43
Copy CRC BBD6DB43
Copy OK
No errors occurred
AccurateRip summary
Track 1 not present in database
Track 2 not present in database
Track 3 not present in database
Track 4 not present in database
Track 5 not present in database
Track 6 not present in database
Track 7 not present in database
Track 8 not present in database
Track 9 not present in database
Track 10 not present in database
Track 11 not present in database
Track 12 not present in database
Track 13 not present in database
Track 14 not present in database
Track 15 not present in database
Track 16 not present in database
Track 17 not present in database
Track 18 not present in database
Track 19 not present in database
Track 20 not present in database
Track 21 not present in database
Track 22 not present in database
Track 23 not present in database
Track 24 not present in database
Track 25 not present in database
None of the tracks are present in the AccurateRip database
End of status report
==== Log checksum D4DBFAC948CF6A71426524C1B6F4B6B27B622FAE5E84F1147121BF6BA14D7A22 ====
-
-Доп. информация: Полное собрание фортепианной музыки замечательного (и во многом недооценённого) испанского композитора Хоакина Турины(1882-1949) - грандиозный проект, который на протяжении уже более 10 лет осуществляет профессор Консерватории Гранольерса каталонский пианист Жорди Масо совместно с фирмой Naxos. Немного тепла солнечной Испании в наше холодное время.
Раздача будет вестись путем добавления новых томов. На сегодняшний день издано 11 томов полного собрания фортепианных работ Турины.30.I.2016: Раздача обновлена - добавлены тома 9-11.-



Показать сообщения:    

Текущее время: 04-Дек 13:13

Часовой пояс: UTC + 3


Вы не можете начинать темы
Вы не можете отвечать на сообщения
Вы не можете редактировать свои сообщения
Вы не можете удалять свои сообщения
Вы не можете голосовать в опросах
Вы не можете прикреплять файлы к сообщениям
Вы не можете скачивать файлы