(Classical) Ludwig van Beethoven — The Complete Piano Concertos • «Choral» Fantasy Op 80 (Yefim Bronfman, David Zinman) — 2014, FLAC (image+.cue) lossless


Статистика раздачи [Обновить пиров]
Размер:  718 MB   |    Зарегистрирован:  8 месяцев 16 дней   |    Скачан:  2 раза

Полного источника не было: 3 месяца 19 дней

 
   
 
 
 

[Цитировать]

The Complete Piano Concertos • «Choral» Fantasy Op 80-
Жанр: Classical
Страны-производители комплекта: Нидерланды / Германия
Издатели: Brilliant Classics / Arte Nova Classics
Номер по каталогу: 94856
Год издания комплекта: September, 30, 2014
Годы записи фонограмм: 2004-2005
Композитор: Ludwig van Beethoven
Исполнительский коллектив: Zurich Tonhalle Orchestra under David Zinman, Yefim Bronfman (Piano); Schweizer Kammerchor (Op 80 & 112)
Аудио кодек: flac
Тип рипа: image+.cue
Битрейт аудио: lossless
Продолжительность: 03h17'46"
Источник: web
Наличие сканов в содержимом раздачи: да-

Треклист


CD 1 [01h06'59"]
(01-03) Piano Concerto № 1 C-Dur Op 15 [37'44"]
(04-06) Piano Concerto № 2 B-Dur Op 19 [29'15"]-Номер по каталогу: ANO 825870
Год издания диска: March, 13, 2007
Recorded October, 06, 2005 (Op 15) & October, 07, 2005 (Op 19), Tonhalle, Zurich, Switzerland-

EAC log

Exact Audio Copy V1.0 beta 3 from 29. August 2011
[br]
EAC extraction logfile from 28. November 2014, 16:44
[br]
Yefim Bronfman, David Zinman / Beethoven - Piano Concertos nos.1 & 2 - Bronfman, Zinman
[br]
Used drive  : TSSTcorpCDDVDW SH-222BB   Adapter: 2  ID: 1
[br]
Read mode               : Secure
Utilize accurate stream : Yes
Defeat audio cache      : Yes
Make use of C2 pointers : No
[br]
Read offset correction                      : 6
Overread into Lead-In and Lead-Out          : No
Fill up missing offset samples with silence : Yes
Delete leading and trailing silent blocks   : No
Null samples used in CRC calculations       : Yes
Used interface                              : Native Win32 interface for Win NT & 2000
[br]
Used output format              : User Defined Encoder
Selected bitrate                : 896 kBit/s
Quality                         : High
Add ID3 tag                     : No
Command line compressor         : C:\Program Files\Exact Audio Copy\FLAC\FLAC.EXE
Additional command line options : -8 -V -T "TITLE=%title%" -T "ARTIST=%artist%" -T "ALBUMARTIST=%albumartist%" -T "ALBUM=%albumtitle%" -T "DATE=%year%" -T "TRACKNUMBER=%tracknr%" -T "TRACKTOTAL=%numtracks%" -T "GENRE=%genre%" -T "COMMENT=%comment%" -T "PERFORMER=%albuminterpret%" -T "COMPOSER=%composer%" %source% -o %dest%
[br]
TOC of the extracted CD
[br]
Track |   Start  |  Length  | Start sector | End sector
---------------------------------------------------------
1  |  0:00.00 | 18:08.52 |         0    |    81651
2  | 18:08.52 | 10:38.10 |     81652    |   129511
3  | 28:46.62 |  8:57.39 |    129512    |   169825
4  | 37:44.26 | 14:14.40 |    169826    |   233915
5  | 51:58.66 |  8:50.23 |    233916    |   273688
6  | 60:49.14 |  6:09.61 |    273689    |   301424
[br]
Range status and errors
[br]
Selected range
[br]
Filename G:\Ripped general\[7641] Beethoven – Piano Concertos nos.1 & 2 – Bronfman, Zinman\Beethoven - Piano Concertos nos.1 & 2 - Bronfman, Zinman.wav
[br]
Peak level 96.0 %
Extraction speed 7.0 X
Range quality 100.0 %
Test CRC 05BEAC2C
Copy CRC 05BEAC2C
Copy OK
[br]
No errors occurred
[br]
AccurateRip summary
[br]
Track  1  accurately ripped (confidence 9)  [B6935FA9]  (AR v2)
Track  2  accurately ripped (confidence 9)  [1C3C4F85]  (AR v2)
Track  3  accurately ripped (confidence 9)  [AB73E86C]  (AR v2)
Track  4  accurately ripped (confidence 9)  [25901FE5]  (AR v2)
Track  5  accurately ripped (confidence 9)  [D31B890F]  (AR v2)
Track  6  accurately ripped (confidence 9)  [0D6BBE39]  (AR v2)
[br]
All tracks accurately ripped
[br]
End of status report
[br]
==== Log checksum 59B383590EA9E1D3BC25F2B8392434F9B468D4A73A2C14C04094BBB2CB22E33B ====
-

CUE

REM GENRE Classical
REM DATE 2007
REM DISCID 430FB306
REM COMMENT "ExactAudioCopy v1.0b3"
PERFORMER "Yefim Bronfman, David Zinman"
TITLE "Beethoven - Piano Concertos nos.1 & 2 - Bronfman, Zinman"
FILE "Beethoven - Piano Concertos nos.1 & 2 - Bronfman, Zinman.flac" WAVE
TRACK 01 AUDIO
TITLE "Beethoven: Piano Concerto No. 1 in C major, Op. 15 - 1. Allegro con brio"
PERFORMER "Yefim Bronfman, David Zinman"
ISRC DEP620600061
FLAGS PRE DCP
INDEX 01 00:00:00
TRACK 02 AUDIO
TITLE "Beethoven: Piano Concerto No. 1 in C major, Op. 15 - 2. Largo"
PERFORMER "Yefim Bronfman, David Zinman"
ISRC DEP620600062
FLAGS PRE DCP
INDEX 00 18:03:69
INDEX 01 18:08:52
TRACK 03 AUDIO
TITLE "Beethoven: Piano Concerto No. 1 in C major, Op. 15 - 3. Rondo: allegro scherz..."
PERFORMER "Yefim Bronfman, David Zinman"
ISRC DEP620600063
FLAGS PRE DCP
INDEX 00 28:45:04
INDEX 01 28:46:62
TRACK 04 AUDIO
TITLE "Beethoven: Piano Concerto No. 2 in B flat major, Op. 19 - 1. Allegro con brio"
PERFORMER "Yefim Bronfman, David Zinman"
ISRC DEP620600065
FLAGS PRE DCP
INDEX 00 37:35:43
INDEX 01 37:44:26
TRACK 05 AUDIO
TITLE "Beethoven: Piano Concerto No. 2 in B flat major, Op. 19 - 2. Adagio"
PERFORMER "Yefim Bronfman, David Zinman"
ISRC DEP620600066
FLAGS PRE DCP
INDEX 00 51:55:08
INDEX 01 51:58:66
TRACK 06 AUDIO
TITLE "Beethoven: Piano Concerto No. 2 in B flat major, Op. 19 - 3. Rondo: molto all..."
PERFORMER "Yefim Bronfman, David Zinman"
ISRC DEP620600067
FLAGS PRE DCP
INDEX 00 60:47:31
INDEX 01 60:49:14
-
CD 2 [01h06'59"]
(01-03) Piano Concerto № 3 c-moll Op 37 [34'17"]
(04-06) Piano Concerto № 4 G-Dur Op 58 [32'42"]-Номер по каталогу: ANO 640100
Год издания диска: September, 13, 2005
Recorded September, 21-22, 2004 (Op 37) & September, 22-23, 2004 (Op 58), Tonhalle, Zurich, Switzerland-

EAC log

Exact Audio Copy V1.0 beta 3 from 29. August 2011
[br]
EAC extraction logfile from 28. November 2014, 17:21
[br]
Yefim Bronfman, David Zinman / Beethoven - Piano Concertos nos.3 & 4 - Bronfman, Zinman
[br]
Used drive  : TSSTcorpCDDVDW SH-222BB   Adapter: 2  ID: 1
[br]
Read mode               : Secure
Utilize accurate stream : Yes
Defeat audio cache      : Yes
Make use of C2 pointers : No
[br]
Read offset correction                      : 6
Overread into Lead-In and Lead-Out          : No
Fill up missing offset samples with silence : Yes
Delete leading and trailing silent blocks   : No
Null samples used in CRC calculations       : Yes
Used interface                              : Native Win32 interface for Win NT & 2000
[br]
Used output format              : User Defined Encoder
Selected bitrate                : 896 kBit/s
Quality                         : High
Add ID3 tag                     : No
Command line compressor         : C:\Program Files\Exact Audio Copy\FLAC\FLAC.EXE
Additional command line options : -8 -V -T "TITLE=%title%" -T "ARTIST=%artist%" -T "ALBUMARTIST=%albumartist%" -T "ALBUM=%albumtitle%" -T "DATE=%year%" -T "TRACKNUMBER=%tracknr%" -T "TRACKTOTAL=%numtracks%" -T "GENRE=%genre%" -T "COMMENT=%comment%" -T "PERFORMER=%albuminterpret%" -T "COMPOSER=%composer%" %source% -o %dest%
[br]
TOC of the extracted CD
[br]
Track |   Start  |  Length  | Start sector | End sector
---------------------------------------------------------
1  |  0:00.00 | 16:00.08 |         0    |    72007
2  | 16:00.08 |  9:09.26 |     72008    |   113208
3  | 25:09.34 |  9:07.46 |    113209    |   154279
4  | 34:17.05 | 18:25.40 |    154280    |   237194
5  | 52:42.45 |  4:24.59 |    237195    |   257053
6  | 57:07.29 |  9:51.46 |    257054    |   301424
[br]
Range status and errors
[br]
Selected range
[br]
Filename G:\Ripped general\[7640] Beethoven – Piano Concertos nos.3 & 4 – Bronfman, Zinman\Beethoven - Piano Concertos nos.3 & 4 - Bronfman, Zinman.wav
[br]
Peak level 99.4 %
Extraction speed 7.1 X
Range quality 100.0 %
Test CRC C55D38B6
Copy CRC C55D38B6
Copy OK
[br]
No errors occurred
[br]
AccurateRip summary
[br]
Track  1  accurately ripped (confidence 10)  [CAB966EB]  (AR v2)
Track  2  accurately ripped (confidence 10)  [C386082F]  (AR v2)
Track  3  accurately ripped (confidence 10)  [D4A683A9]  (AR v2)
Track  4  accurately ripped (confidence 10)  [A8A22676]  (AR v2)
Track  5  accurately ripped (confidence 10)  [18568AAA]  (AR v2)
Track  6  accurately ripped (confidence 10)  [B4C53EEB]  (AR v2)
[br]
All tracks accurately ripped
[br]
End of status report
[br]
==== Log checksum 2D2A3C9E130EF05A029BAB1C08181992CCC3468208FCF897450F628D264A1C8F ====
-

CUE

REM GENRE Classical
REM DATE 2007
REM DISCID 4B0FB306
REM COMMENT "ExactAudioCopy v1.0b3"
PERFORMER "Yefim Bronfman, David Zinman"
TITLE "Beethoven - Piano Concertos nos.3 & 4 - Bronfman, Zinman"
FILE "Beethoven - Piano Concertos nos.3 & 4 - Bronfman, Zinman.flac" WAVE
TRACK 01 AUDIO
TITLE "Beethoven: Piano Concerto No. 3 in C minor, Op. 37 - 1. Allegro con brio"
PERFORMER "Yefim Bronfman, David Zinman"
ISRC DEP620500001
FLAGS DCP
INDEX 01 00:00:00
TRACK 02 AUDIO
TITLE "Beethoven: Piano Concerto No. 3 in C minor, Op. 37 - 2. Largo"
PERFORMER "Yefim Bronfman, David Zinman"
ISRC DEP620500002
FLAGS DCP
INDEX 00 15:55:25
INDEX 01 16:00:08
TRACK 03 AUDIO
TITLE "Beethoven: Piano Concerto No. 3 in C minor, Op. 37 - 3. Rondo Allegro"
PERFORMER "Yefim Bronfman, David Zinman"
ISRC DEP620500003
FLAGS DCP
INDEX 01 25:09:34
TRACK 04 AUDIO
TITLE "Beethoven: Piano Concerto No. 4 in G major, Op. 58 - 1. Allegro moderato"
PERFORMER "Yefim Bronfman, David Zinman"
ISRC DEP620500004
FLAGS DCP
INDEX 00 34:09:22
INDEX 01 34:17:05
TRACK 05 AUDIO
TITLE "Beethoven: Piano Concerto No. 4 in G major, Op. 58 - 2. Andante con moto"
PERFORMER "Yefim Bronfman, David Zinman"
ISRC DEP620500005
FLAGS DCP
INDEX 00 52:37:62
INDEX 01 52:42:45
TRACK 06 AUDIO
TITLE "Beethoven: Piano Concerto No. 4 in G major, Op. 58 - 3. Rondo Vivace"
PERFORMER "Yefim Bronfman, David Zinman"
ISRC DEP620500005
FLAGS DCP
INDEX 01 57:07:29
-
CD 3 [01h03'48"]
(01-03) Piano Concerto № 5 Es-Dur Op 73 «Emperor» [37'33"]
(04) Piano, Chorus & Orchestra Fantasy c-moll Op 80 [19'12"]
(05) Orchestra & Chorus Cantata «Meeresstille und glückliche Fahrt» D-Dur Op 112 [07'03"]-Номер по каталогу: ANO 825850
Год издания диска: November, 14, 2006
Recorded May, (02-04), 2005, Tonhalle, Zurich, Switzerland-

EAC log

Exact Audio Copy V1.0 beta 3 from 29. August 2011
[br]
EAC extraction logfile from 28. November 2014, 17:46
[br]
Bronfman, Zinman / Beethoven - Piano Concerto no.5, Choral Fantasy - Bronfman, Zinman
[br]
Used drive  : TSSTcorpCDDVDW SH-222BB   Adapter: 2  ID: 1
[br]
Read mode               : Secure
Utilize accurate stream : Yes
Defeat audio cache      : Yes
Make use of C2 pointers : No
[br]
Read offset correction                      : 6
Overread into Lead-In and Lead-Out          : No
Fill up missing offset samples with silence : Yes
Delete leading and trailing silent blocks   : No
Null samples used in CRC calculations       : Yes
Used interface                              : Native Win32 interface for Win NT & 2000
[br]
Used output format              : User Defined Encoder
Selected bitrate                : 896 kBit/s
Quality                         : High
Add ID3 tag                     : No
Command line compressor         : C:\Program Files\Exact Audio Copy\FLAC\FLAC.EXE
Additional command line options : -8 -V -T "TITLE=%title%" -T "ARTIST=%artist%" -T "ALBUMARTIST=%albumartist%" -T "ALBUM=%albumtitle%" -T "DATE=%year%" -T "TRACKNUMBER=%tracknr%" -T "TRACKTOTAL=%numtracks%" -T "GENRE=%genre%" -T "COMMENT=%comment%" -T "PERFORMER=%albuminterpret%" -T "COMPOSER=%composer%" %source% -o %dest%
[br]
TOC of the extracted CD
[br]
Track |   Start  |  Length  | Start sector | End sector
---------------------------------------------------------
1  |  0:00.00 | 19:37.33 |         0    |    88307
2  | 19:37.33 |  7:28.54 |     88308    |   121961
3  | 27:06.12 | 10:26.50 |    121962    |   168961
4  | 37:32.62 | 19:12.07 |    168962    |   255368
5  | 56:44.69 |  7:03.06 |    255369    |   287099
[br]
Range status and errors
[br]
Selected range
[br]
Filename G:\Ripped general\[7639] Beethoven – Piano Concerto no.5, Choral Fantasy – Bronfman, Zinman\Beethoven - Piano Concerto no.5, Choral Fantasy - Bronfman, Zinman.wav
[br]
Peak level 99.6 %
Extraction speed 7.0 X
Range quality 100.0 %
Test CRC 3D64194C
Copy CRC 3D64194C
Copy OK
[br]
No errors occurred
[br]
AccurateRip summary
[br]
Track  1  accurately ripped (confidence 38)  [C4C8CB1E]  (AR v2)
Track  2  accurately ripped (confidence 39)  [52493D67]  (AR v2)
Track  3  accurately ripped (confidence 39)  [EF5AE3B5]  (AR v2)
Track  4  accurately ripped (confidence 38)  [23C0DADC]  (AR v2)
Track  5  accurately ripped (confidence 38)  [D810FC3D]  (AR v2)
[br]
All tracks accurately ripped
[br]
End of status report
[br]
==== Log checksum EFFB9E95BFC4992AC78D374DB757E4283A52B228172DC8CDB2E5F1FD42DF4C4E ====
-

CUE

REM GENRE Classical
REM DATE 2006
REM DISCID 3F0EF405
REM COMMENT "ExactAudioCopy v1.0b3"
PERFORMER "Bronfman, Zinman"
TITLE "Beethoven - Piano Concerto no.5, Choral Fantasy - Bronfman, Zinman"
FILE "Beethoven - Piano Concerto no.5, Choral Fantasy - Bronfman, Zinman.flac" WAVE
TRACK 01 AUDIO
TITLE "Piano Concerto No.5 in E flat major, Op.73 - 1. Allegro"
PERFORMER "Bronfman, Zinman"
ISRC DEP620600050
FLAGS DCP
INDEX 01 00:00:00
TRACK 02 AUDIO
TITLE "Piano Concerto No.5 in E flat major, Op.73 - 2. Adagio un poco mosso"
PERFORMER "Bronfman, Zinman"
ISRC DEP620600051
FLAGS DCP
INDEX 00 19:35:50
INDEX 01 19:37:33
TRACK 03 AUDIO
TITLE "Piano Concerto No.5 in E flat major, Op.73 - 3. Rondo: Allegro"
PERFORMER "Bronfman, Zinman"
ISRC DEP620600052
FLAGS DCP
INDEX 01 27:06:12
TRACK 04 AUDIO
TITLE "Choral Fantasy in C minor, Op.90"
PERFORMER "Bronfman, Zinman"
ISRC DEP620600053
FLAGS DCP
INDEX 00 37:26:04
INDEX 01 37:32:62
TRACK 05 AUDIO
TITLE "Calm Sea & Prosperous Voyage, Op. 112"
PERFORMER "Bronfman, Zinman"
ISRC DEP620600054
FLAGS DCP
INDEX 00 56:38:11
INDEX 01 56:44:69
-
-
[teatrix.ru].t22831.torrent 
Торрент: Зарегистрирован [ 2016-03-21 00:42 ] · 4906AC19DFE8FC8A53AA0A0E761639C747162C04

Скачать .torrent

Скачать

19 KB

Статус: проверено
Скачан: 2 раз
Размер: 718 MB
terms.php



Быстрый ответ

Имя:

      
Для отправки сообщений необходимо включить JavaScript
Показать сообщения:    

Текущее время: 06-Дек 17:11

Часовой пояс: UTC + 3


Вы можете начинать темы
Вы можете отвечать на сообщения
Вы не можете редактировать свои сообщения
Вы не можете удалять свои сообщения
Вы не можете голосовать в опросах
Вы не можете прикреплять файлы к сообщениям
Вы можете скачивать файлы