Иррациональный человек / Irrational Man (Вуди Аллен / Woody Allen) [2015, США, драма, детектив, BDRip-AVC] Dub + Sub (Eng)


 

[Цитировать]

Иррациональный человек
Irrational Man

Страна: США
Жанр: драма, детектив
Год выпуска: 2015
Продолжительность: 01:34:49
Перевод: Профессиональный (полное дублирование) [Лицензия iTunes]
Субтитры: английские (Full), английские (SDH)
Оригинальная аудиодорожка: нет
Режиссер: Вуди Аллен / Woody Allen
В ролях: Хоакин Феникс, Эмма Стоун, Джейми Блэкли, Паркер Поузи, Джо Степлтон, Нэнси Кэрролл, Эллисон Галлерани, Бригитт Ланди-Пейн, Кэтлин Семер, Бетси Айдем, Итэн Филлипс, Леа Андерсон
Описание:
Профессор философии Эйб Лукас опустошен: он не видит в своей жизни ни радости, ни смысла.
На лето Эйб приезжает преподавать в небольшой колледж, где у него завязываются отношения с двумя очень разными женщинами. Рита, его новая коллега, воображает, что именно он вызволит ее из несчастливого брака. А Джилл, его лучшая студентка, становится ему ближайшим другом. Но девушку неодолимо притягивают мятущаяся творческая натура Эйба и его загадочное прошлое, и она все больше отдаляется от своего бойфренда, Роя...
Все меняет невольно подслушанный Эйбом и Джилл разговор, после которого Эйб, стряхнув с себя равнодушие и отчаяние, решает действовать... Абсолютно иррационально.
Автор рипа: Stalker oK
Сэмпл
Качество видео: BDRip-AVC [BLUEBIRD / Blu-ray Disc / 1080p]
Формат видео: MKV
Видео кодек: AVC
Аудио кодек: AC3
Видео: 1759 Кбит/сек, 1032x430 (2.40:1), 23,976 кадр/сек, AVC
Аудио: русский, 384 Кбит/сек, 48 КГц, 16 бит, 5.1, AC3
Навигация по главам: есть

MediaInfo

Общее
Уникальный идентификатор : 244709238488170078396964717532410563325 (0xB81948F63C4D761D9983654D715C4AFD)
Полное имя : M:\Rips2\Irrational Man\Irrational.Man.2015.BDRip-AVC.Dub.1.45Gb.stalkerok.new-team.mkv
Формат : Matroska
Версия формата : Version 4 / Version 2
Размер файла : 1,42 Гбайт
Продолжительность : 1 ч. 34 м.
Общий поток : 2144 Кбит/сек
Название фильма : Irrational Man (2015) (New-Team) (Rip by Stalker oK)
Дата кодирования : UTC 2016-01-14 15:53:36
Программа кодирования : mkvmerge v8.6.1 ('Flying') 64bit
Библиотека кодирования : libebml v1.3.3 + libmatroska v1.4.4
Видео
Идентификатор : 1
Формат : AVC
Формат/Информация : Advanced Video Codec
Профиль формата : High@L4.1
Параметр CABAC формата : Да
Параметр ReFrames формата : 15 кадров
Идентификатор кодека : V_MPEG4/ISO/AVC
Продолжительность : 1 ч. 34 м.
Битрейт : 1759 Кбит/сек
Ширина : 1032 пикселя
Высота : 430 пикселей
Соотношение сторон : 2,40:1
Режим частоты кадров : Постоянный
Частота кадров : 23,976 (24000/1001) кадра/сек
Цветовое пространство : YUV
Субдискретизация насыщенности : 4:2:0
Битовая глубина : 8 бит
Тип развёртки : Прогрессивная
Бит/(Пиксели*Кадры) : 0.165
Размер потока : 1,16 Гбайт (82%)
Заголовок : Irrational Man (2015) (New-Team) (Rip by Stalker oK)
Библиотека кодирования : x264 core 148 r2638kMod 7599210
Настройки программы : cabac=1 / ref=15 / deblock=1:-3:-3 / analyse=0x3:0x133 / me=umh / subme=11 / psy=1 / fade_compensate=0.00 / psy_rd=1.00:0.10 / mixed_ref=1 / me_range=48 / chroma_me=1 / trellis=2 / 8x8dct=1 / cqm=0 / deadzone=21,11 / fast_pskip=0 / chroma_qp_offset=-3 / threads=12 / lookahead_threads=3 / sliced_threads=0 / nr=0 / decimate=0 / interlaced=0 / bluray_compat=0 / constrained_intra=0 / fgo=0 / bframes=15 / b_pyramid=2 / b_adapt=2 / b_bias=0 / direct=3 / weightb=1 / open_gop=0 / weightp=2 / keyint=240 / keyint_min=23 / scenecut=40 / intra_refresh=0 / rc_lookahead=60 / rc=2pass / mbtree=0 / bitrate=1759 / ratetol=1.0 / qcomp=0.70 / qpmin=0 / qpmax=69 / qpstep=4 / cplxblur=20.0 / qblur=0.5 / vbv_maxrate=50000 / vbv_bufsize=62500 / nal_hrd=none / filler=0 / ip_ratio=1.40 / pb_ratio=1.30 / aq=3:0.90
Default : Да
Forced : Нет
Аудио
Идентификатор : 2
Формат : AC-3
Формат/Информация : Audio Coding 3
Расширение режима : CM (complete main)
Параметр Endianness формата : Big
Идентификатор кодека : A_AC3
Продолжительность : 1 ч. 34 м.
Вид битрейта : Постоянный
Битрейт : 384 Кбит/сек
Каналы : 6 каналов
Расположение каналов : Front: L C R, Side: L R, LFE
Частота : 48,0 КГц
Частота кадров : 31,250 кадров/сек (1536 spf)
Метод сжатия : С потерями
Размер потока : 260 Мбайт (18%)
Язык : Russian
Default : Да
Forced : Нет
Текст #1
Идентификатор : 3
Формат : UTF-8
Идентификатор кодека : S_TEXT/UTF8
Идентификатор кодека/Информация : UTF-8 Plain Text
Продолжительность : 1 ч. 29 м.
Битрейт : 99 бит/сек
Count of elements : 1606
Размер потока : 65,5 Кбайт (0%)
Заголовок : Full
Язык : English
Default : Нет
Forced : Нет
Текст #2
Идентификатор : 4
Формат : UTF-8
Идентификатор кодека : S_TEXT/UTF8
Идентификатор кодека/Информация : UTF-8 Plain Text
Продолжительность : 1 ч. 30 м.
Битрейт : 102 бит/сек
Count of elements : 1658
Размер потока : 68,0 Кбайт (0%)
Заголовок : SDH
Язык : English
Default : Нет
Forced : Нет
Меню
00:00:00.000 : en:Chapter 1
00:04:40.113 : en:Chapter 2
00:09:23.688 : en:Chapter 3
00:13:30.100 : en:Chapter 4
00:17:54.698 : en:Chapter 5
00:23:17.646 : en:Chapter 6
00:30:58.147 : en:Chapter 7
00:38:21.215 : en:Chapter 8
00:45:41.071 : en:Chapter 9
00:54:50.287 : en:Chapter 10
01:00:10.189 : en:Chapter 11
01:04:35.037 : en:Chapter 12
01:09:44.138 : en:Chapter 13
01:13:58.475 : en:Chapter 14
01:20:16.019 : en:Chapter 15
01:26:02.115 : en:Chapter 16

Скриншоты




Показать сообщения:    

Текущее время: 03-Дек 05:26

Часовой пояс: UTC + 3


Вы не можете начинать темы
Вы не можете отвечать на сообщения
Вы не можете редактировать свои сообщения
Вы не можете удалять свои сообщения
Вы не можете голосовать в опросах
Вы не можете прикреплять файлы к сообщениям
Вы не можете скачивать файлы