Сати. Нескучная классика... (Сати Спивакова) [2016, ток-шоу, DVB] Обновлено 15.03.2016


Статистика раздачи [Обновить пиров]
Размер:  5.53 GB   |    Зарегистрирован:  8 месяцев 13 дней   |    Скачан:  0 раз

Полного источника не было: Никогда

 
   
 
 
 

[Цитировать]

Сати. Нескучная классика...
Дата/Год выпуска: 2016
Страна: Россия
Жанр: ток-шоу
Продолжительность: ~ 39 минут выпуск
Перевод: Не требуется
Ведущая: Сати Спивакова
Телеканал: Россия К (Россия Культура)
Описание: В гостях у Сати Спиваковой побывают те, кто владеет музыкальными тайнами – знаменитые пианисты и скрипачи, оперные примадонны, премьеры балетных трупп и те, кто еще только готовится приобщиться к тайнам классики – молодые виртуозы, студенты творческих вузов.
Доп. информация: Все раздачи "Сати. Нескучная классика..." http://teatrix.ru/tracker.php?nm=%D0%A1%D0%B0%D1%82%D0%B8.%20%D0%9D%D0%B...0%B8%D0%BA%D0%B0
качество: DVB
формат: MPG
Видео: MPEG-PS, 768@720x576, 4:3, 3511 kbps, 0.339 bit/pixel, 25 fps
Аудио: MPEG-1 Layer 2, 192 Кбит/сек, 48000Hz 2 ch

Список выпусков/серий

2016-01-11 Денис Мацуев и Ильдар Абдразаков
2016-01-18 Дина Кирнарская и Дмитрий Бертман
2016-02-01 Александр Мясников и Артем Варгафтик
2016-02-15 Людмила Берлинская, Феликс Коробов и Алексей Лундин
2016-02-29 Ольга Гурякова, Мария Александрова и Дмитрий Белов
2016-03-14 Наталья Басовская и Вадим Журавлев

MediaInfo

Общее
Полное имя : D:\Видео\Сати. Нескучная классика 2016\2016-01-11 Денис Мацуев и Ильдар Абдразаков.mpg
Формат : MPEG-PS
Размер файла : 1,02 Гбайт
Продолжительность : 38 м.
Режим общего битрейта : Переменный
Общий поток : 3778 Кбит/сек
Библиотека кодирования : (c) 1998-2009 Womble Multimedia, Inc. / MPEG Video Wizard (03/2009) / Jun 24 2009
Видео
Идентификатор : 224 (0xE0)
Формат : MPEG Video
Версия формата : Version 2
Профиль формата : Main@Main
Параметр BVOP формата : Да
Параметр матрицы формата : Выборочная
Параметр GOP формата : M=3, N=36
Format_Settings_PictureStructure : Frame
Продолжительность : 38 м.
Вид битрейта : Переменный
Битрейт : 3511 Кбит/сек
Максимальный битрейт : 15,0 Мбит/сек
Ширина : 720 пикселей
Высота : 576 пикселей
Соотношение сторон : 4:3
Частота кадров : 25,000 кадров/сек
Стандарт вещания : PAL
Цветовое пространство : YUV
Субдискретизация насыщенности : 4:2:0
Битовая глубина : 8 бит
Тип развёртки : Чересстрочная
Порядок развёртки : Верхнее поле первое
Метод сжатия : С потерями
Бит/(Пиксели*Кадры) : 0.339
Временной код первого кадра : 00:00:00:00
Оригинал временного кода : Group of pictures header
Размер потока : 972 Мбайт (93%)
Библиотека кодирования : (c) 1998-2009 Womble Multimedia, Inc. / MPEG Video Wizard (03/2009) / Jun 24 2009
Аудио
Идентификатор : 192 (0xC0)
Формат : MPEG Audio
Версия формата : Version 1
Профиль формата : Layer 2
Продолжительность : 38 м.
Вид битрейта : Постоянный
Битрейт : 192 Кбит/сек
Каналы : 2 канала
Частота : 48,0 КГц
Метод сжатия : С потерями
Размер потока : 53,1 Мбайт (5%)

Скриншоты

Внимание! Раздача ведётся путём добавления новых выпусков

Внимание! Раздача ведётся путём добавления новых выпусков; при каждом добавлении создаётся новый торрент. Чтобы начать докачку нового выпуска, пользователям необходимо сделать следующее:
(1) остановить скачивание,
(2) удалить старый торрент у себя из клиента (старые серии удалять не надо),
(3) скачать новый торрент и запустить его у себя в клиенте вместо старого, при этом указать клиенту путь в старую папку куда и должно происходить скачивание новых выпусков.
Ваш клиент при этом должен произвести хеширование (проверку) старой папки (если не производит сам - помогите ему сделать это). В результате он будет докачивать только те выпуски, которых у Вас ещё нет. Старые выпуски при этом не удаляются, а продолжают раздаваться!
Eсли Вы уже удалили старые выпуски, то предотвратить их повторную закачку можно, сняв галочки в соответствующих местах при запуске нового торрента. По возможности, желательно не удалять старые выпуски как можно дольше, чтобы релизёр не только продолжал раздавать старые выпуски, но и смог сконцентрироваться на новых.
[teatrix.ru].t22835.torrent 
Торрент: Зарегистрирован [ 2016-03-21 00:42 ] · B9D2EABBBD872F7616651BFB1723A7AA8C7DFD34

Скачать .torrent

Скачать

29 KB

Статус: проверено
Скачан: 0 раз
Размер: 5.53 GB
terms.php



Быстрый ответ

Имя:

      
Для отправки сообщений необходимо включить JavaScript
Показать сообщения:    

Текущее время: 03-Дек 20:46

Часовой пояс: UTC + 3


Вы можете начинать темы
Вы можете отвечать на сообщения
Вы не можете редактировать свои сообщения
Вы не можете удалять свои сообщения
Вы не можете голосовать в опросах
Вы не можете прикреплять файлы к сообщениям
Вы можете скачивать файлы