Деген (Михаил Дегтярь, Юлия Меламед) [2014, Документальный, HDRip]


Статистика раздачи [Обновить пиров]
Размер:  1.01 GB   |    Зарегистрирован:  8 месяцев 18 дней   |    Скачан:  1 раз

Полного источника не было: 6 месяцев 21 день

 
   
 
 
 

[Цитировать]

Деген
Дата/Год выпуска: 2014
Страна: Россия
Жанр: Документальный
Продолжительность: 00:57:47
Перевод: Не требуется
Субтитры: Английские
Доп. инфо о переводе: ООО "ТВ Студия Репортёр"
Оригинальная аудиодорожка: русский
Режиссер: Михаил Дегтярь, Юлия Меламед
Описание: Фильм рассказывает о фантастической судьбе «последнего поэта великой войны», героя, уничтожившего 16 немецких танков. Дважды представленного к званию Героя Советского Союза. Едва не арестованного. Мудрого и сентиментального. Пережившего страшные и неисчислимые потери своих товарищей. Прожившего долгую жизнь..
Фильм о таланте не убивать, но убивать.
Вся его жизнь — непреодолимые препятствия, которые надо было преодолевать. И которые научили его любить многокрасочную жизнь. Фильм — попытка рассказать не только об истории, но и современном мире с помощью зеркала истории.
Доп. информация: Фильм был показан в рамках онлайн-фестиваля документальных фильмов "Новой Газеты", который проходил с 3 по 14 января 2016 года.
Потоковое видео транслировалось в качестве 720p, захват осуществлён программой LiteCam HD 4.9.0.3, далее выходной файл ужат кодеком H.264.
UPD (16.01): Все фильмы докфеста "Новой Газеты" выложены каким-то добрым человеком на пиратской бухте, кстати (поиск по запросу "Докфест"). Для популяризации было бы здорово выложить их сюда, но, честно говоря, очень не хочется заморачиваться с оформлением всех 12 фильмов. Верстать постеры, скрины, пережимать видео до требуемого разрешения, резать сэмплы, генерить метаданные... Потом выслушивать претензии от модераторов, снова переделывать что-то...
Кстати, раздаче присвоен статус "СОМНИТЕЛЬНО" и её перенесли в другой раздел, где уже другие модераторы займутся её проверкой "на коршеность". Ввиду того, что какие-то там параметры видео, которые могут быть понятны только видеоинженерам (а рядовой зритель ничего не заметит), не удовлетворяют регламенту, то скорее всего, эта раздача будет закрыта. Поэтому качайте с пиратки. Спасибо тому доброму человеку! Фильмы в отличном качестве. Без заморочек и ненужного модераторства, которое по сути есть чистейшее фарисейство в данной ситуации, и является камнем преткновения для размещения редких и, порой, уникальных материалов.

Сэмпл: http://rusfolder.com/44638026
качество: HDRip
формат: MP4
Видео: AVC, 1024x574, 16:9, 24 fps, 2500 kbps
Аудио: AAC, 22,05 kHz, 62,3 kbps, 2 channels

MediaInfo

Общее
Полное имя : D:\Downloads\Degen\Ion Degen.mp4
Формат : MPEG-4
Профиль формата : Base Media
Идентификатор кодека : isom (isom/iso2/avc1/mp41)
Размер файла : 1,01 Гбайт
Продолжительность : 57 м.
Режим общего битрейта : Переменный
Общий поток : 2526 Кбит/сек
Дата кодирования : UTC 2016-01-15 13:08:05
Дата пометки : UTC 2016-01-15 13:08:05
Программа кодирования : Lavf52.93.0
Примечание : Advanced Video Compressor - WinSoftMagic.com
Видео
Идентификатор : 1
Формат : AVC
Формат/Информация : Advanced Video Codec
Профиль формата : High@L3.1
Параметр CABAC формата : Да
Параметр ReFrames формата : 3 кадра
Идентификатор кодека : avc1
Идентификатор кодека/Информация : Advanced Video Coding
Продолжительность : 57 м.
Битрейт : 2500 Кбит/сек
Ширина : 1024 пикселя
Высота : 574 пикселя
Соотношение сторон : 16:9
Режим частоты кадров : Постоянный
Частота кадров : 24,000 кадра/сек
Цветовое пространство : YUV
Субдискретизация насыщенности : 4:2:0
Битовая глубина : 8 бит
Тип развёртки : Прогрессивная
Бит/(Пиксели*Кадры) : 0.177
Размер потока : 1006 Мбайт (97%)
Библиотека кодирования : x264 core 112
Настройки программы : cabac=1 / ref=3 / deblock=1:0:0 / analyse=0x3:0x113 / me=hex / subme=7 / psy=1 / psy_rd=1.00:0.00 / mixed_ref=1 / me_range=16 / chroma_me=1 / trellis=1 / 8x8dct=1 / cqm=0 / deadzone=21,11 / fast_pskip=1 / chroma_qp_offset=-2 / threads=12 / sliced_threads=0 / nr=0 / decimate=1 / interlaced=0 / constrained_intra=0 / bframes=3 / b_pyramid=0 / b_adapt=1 / b_bias=0 / direct=1 / weightb=1 / open_gop=0 / weightp=2 / keyint=250 / keyint_min=25 / scenecut=40 / intra_refresh=0 / rc_lookahead=40 / rc=abr / mbtree=1 / bitrate=2500 / ratetol=1.0 / qcomp=0.60 / qpmin=10 / qpmax=51 / qpstep=4 / ip_ratio=1.41 / aq=1:1.00
Дата кодирования : UTC 2016-01-15 13:08:05
Дата пометки : UTC 2016-01-15 13:08:05
Аудио
Идентификатор : 2
Формат : AAC
Формат/Информация : Advanced Audio Codec
Профиль формата : LC
Идентификатор кодека : 40
Продолжительность : 57 м.
Вид битрейта : Переменный
Битрейт : 62,3 Кбит/сек
Каналы : 2 канала
Расположение каналов : Front: L R
Частота : 22,05 КГц
Частота кадров : 21,533 кадра/сек (1024 spf)
Метод сжатия : С потерями
Размер потока : 25,5 Мбайт (2%)
Дата кодирования : UTC 2016-01-15 13:08:05
Дата пометки : UTC 2016-01-15 13:08:05

Скриншоты

[teatrix.ru].t22836.torrent 
Торрент: Зарегистрирован [ 2016-03-21 00:42 ] · B053A93B93A1608E63E158CDD67CEF03261C0B9D

Скачать .torrent

Скачать

11 KB

Статус: проверено
Скачан: 1 раз
Размер: 1.01 GB
terms.php



Быстрый ответ

Имя:

      
Для отправки сообщений необходимо включить JavaScript
Показать сообщения:    

Текущее время: 08-Дек 21:14

Часовой пояс: UTC + 3


Вы можете начинать темы
Вы можете отвечать на сообщения
Вы не можете редактировать свои сообщения
Вы не можете удалять свои сообщения
Вы не можете голосовать в опросах
Вы не можете прикреплять файлы к сообщениям
Вы можете скачивать файлы