Всё будет хорошо / Every Thing Will Be Fine (Вим Вендерс / Wim Wenders) [2015, Германия, Канада, Франция, Швеция, Норвегия, драма, HDRip] DVO


 

[Цитировать]

Всё будет хорошо
Every Thing Will Be Fine
-Год выпуска: 2015
Страна: Германия, Канада, Франция, Швеция, Норвегия
Жанр: Драма
Продолжительность: 01:54:15
Перевод: Любительский (двухголосый закадровый) [Parovoz Production]
Субтитры: нет
Оригинальная аудиодорожка: нет-Режиссер: Вим Вендерс / Wim Wenders-В ролях: Рэйчел МакАдамс, Джеймс Франко, Петер Стормаре, Шарлотта Генсбур, Мари-Жозе Кроз, Патрик Бошо, Джулия Сара Стоун, Роберт Нэйлор, Джек Фултон, Лайла Фицджералд-Описание: История о писателе по имени Томас, который случайно оказывается виновен в смерти ребёнка. Следующие 12 лет жизни Томаса сконцентрируются на его переживаниях из-за случившегося, а также его отношениях с Кейт, матерью погибшего ребёнка.- -Семпл: http://multi-up.com/1084458-Качество видео: HDRip (исходник BDRip 720p)
Формат видео: AVI
Видео: 720x304 (2.37:1), 25 fps, XviD build 73 ~1620 kbps avg, 0.30 bit/pixel
Аудио: 48 kHz, AC3 Dolby Digital, 2/0 (L,R) ch, ~192 kbps-

MediaInfo

General
Complete name : Every.Thing.Will.Be.Fine.L2.2015.HDRip.avi
Format : AVI
Format/Info : Audio Video Interleave
File size : 1.45 GiB
Duration : 1h 54mn
Overall bit rate : 1 822 Kbps
Writing application : VirtualDubMod 1.5.10.3 | www.virtualdub-fr.org || (build 2550/release)
Writing library : VirtualDubMod build 2550/release
Video
ID : 0
Format : MPEG-4 Visual
Format profile : Advanced Simple@L5
Format settings, BVOP : 1
Format settings, QPel : No
Format settings, GMC : No warppoints
Format settings, Matrix : Custom
Codec ID : XVID
Codec ID/Hint : XviD
Duration : 1h 54mn
Bit rate : 1 621 Kbps
Width : 720 pixels
Height : 304 pixels
Display aspect ratio : 2.35:1
Frame rate : 25.000 fps
Color space : YUV
Chroma subsampling : 4:2:0
Bit depth : 8 bits
Scan type : Progressive
Compression mode : Lossy
Bits/(Pixel*Frame) : 0.296
Stream size : 1.29 GiB (89%)
Writing library : XviD 73
Audio
ID : 1
Format : AC-3
Format/Info : Audio Coding 3
Mode extension : CM (complete main)
Format settings, Endianness : Big
Codec ID : 2000
Duration : 1h 54mn
Bit rate mode : Constant
Bit rate : 192 Kbps
Channel(s) : 2 channels
Channel positions : Front: L R
Sampling rate : 48.0 KHz
Frame rate : 31.250 fps (1536 spf)
Compression mode : Lossy
Stream size : 157 MiB (11%)
Alignment : Split accross interleaves
Interleave, duration : 40 ms (1.00 video frame)
Interleave, preload duratio : 500 ms

Скриншоты






Показать сообщения:    

Текущее время: 09-Дек 20:26

Часовой пояс: UTC + 3


Вы не можете начинать темы
Вы не можете отвечать на сообщения
Вы не можете редактировать свои сообщения
Вы не можете удалять свои сообщения
Вы не можете голосовать в опросах
Вы не можете прикреплять файлы к сообщениям
Вы не можете скачивать файлы