"Дачники" с Машей Шаховой [2001-2005, биография, документальный, история, SATRip] 8 выпусков из ?


Статистика раздачи [Обновить пиров]
Размер:  2.53 GB   |    Зарегистрирован:  8 месяцев 15 дней   |    Скачан:  1 раз

Полного источника не было: 6 месяцев 5 дней

 
   
 
 
 

[Цитировать]

"Дачники" с Машей Шаховой
Дата/Год выпуска: 2001-2005
Страна: Россия
Жанр: биография, документальный, история
Продолжительность: 8x26 мин.
Перевод: Не требуется
Русские субтитры: нет
Ведущая: Маша Шахова
Телеканал: Усадьба ТВОписание: Что объединяет великих писателей, артистов, ученых, художников, политиков и спортсменов? Что объединяет с ними и между собой людей простых – «не великих»? То, что все эти люди рано или поздно становились дачниками. На дачах совершали научные открытия и крутили головокружительные романы, создавали великие произведения искусства и писали доносы на соседей, демонстрировали свою лояльность к политическому режиму и варили варенье, растили детей и скрывались от репрессий. В программе «Дачники» история и современность встречаются в «неформальной обстановке», а неповторимый колорит передачи составляют детали быта и живые – смешные и трогательные, нелепые и драматичные – подробности частной жизни людей.
Доп. информация: Нумерация приведена в соответствии с программой передач телеканала "Усадьба ТВ". Судя по продолжительности передачи в оригинале (40-45 мин.) и в эфире телеканала "Усадьба ТВ" (26 мин.) - здесь ее показывают сокращенно.
Сэмпл: https://www.sendspace.com/file/lpsiow
качество: SATRip
формат: AVI
Видео: Xvid 704x400 (16:9) 25fps ~1536kbps
Аудио: MP3 48000Hz stereo 192kbps

Список выпусков/серий

85. Зеленовка.
86. Рублевка.
87. Зелёная Горка.
88. Ватутинки.
89. Крёкшино.
90. Переезд.
91. Архангельское.
92. Усть-Нарва.

MediaInfo

General
Complete name : J:\Мои раздачи\Дачники с Машей Шаховой\85 - Зеленовка.avi
Format : AVI
Format/Info : Audio Video Interleave
File size : 322 MiB
Duration : 25mn 55s
Overall bit rate : 1 734 Kbps
Video
ID : 0
Format : MPEG-4 Visual
Format profile : Advanced Simple@L5
Format settings, BVOP : 1
Format settings, QPel : No
Format settings, GMC : No warppoints
Format settings, Matrix : Default (H.263)
Codec ID : XVID
Codec ID/Hint : XviD
Duration : 25mn 55s
Bit rate : 1 533 Kbps
Width : 704 pixels
Height : 400 pixels
Display aspect ratio : 16:9
Frame rate : 25.000 fps
Color space : YUV
Chroma subsampling : 4:2:0
Bit depth : 8 bits
Scan type : Progressive
Compression mode : Lossy
Bits/(Pixel*Frame) : 0.218
Stream size : 284 MiB (88%)
Writing library : XviD 64
Audio
ID : 1
Format : MPEG Audio
Format version : Version 1
Format profile : Layer 3
Mode : Joint stereo
Mode extension : MS Stereo
Codec ID : 55
Codec ID/Hint : MP3
Duration : 25mn 55s
Bit rate mode : Constant
Bit rate : 192 Kbps
Channel(s) : 2 channels
Sampling rate : 48.0 KHz
Compression mode : Lossy
Stream size : 35.6 MiB (11%)
Alignment : Split accross interleaves
Interleave, duration : 40 ms (1.00 video frame)
Interleave, preload duration : 500 ms

Скриншоты

Внимание! Раздача ведётся путём добавления новых выпусков

Внимание! Раздача ведётся путём добавления новых выпусков; при каждом добавлении создаётся новый торрент. Чтобы начать докачку нового выпуска, пользователям необходимо сделать следующее:
(1) остановить скачивание,
(2) удалить старый торрент у себя из клиента (старые серии удалять не надо),
(3) скачать новый торрент и запустить его у себя в клиенте вместо старого, при этом указать клиенту путь в старую папку куда и должно происходить скачивание новых выпусков.
Ваш клиент при этом должен произвести хеширование (проверку) старой папки (если не производит сам - помогите ему сделать это). В результате он будет докачивать только те выпуски, которых у Вас ещё нет. Старые выпуски при этом не удаляются, а продолжают раздаваться!
Eсли Вы уже удалили старые выпуски, то предотвратить их повторную закачку можно, сняв галочки в соответствующих местах при запуске нового торрента. По возможности, желательно не удалять старые выпуски как можно дольше, чтобы релизёр не только продолжал раздавать старые выпуски, но и смог сконцентрироваться на новых.
[teatrix.ru].t22841.torrent 
Торрент: Зарегистрирован [ 2016-03-21 00:41 ] · A973FE74DCE706E42AEE85AFA388DC07118BCFE6

Скачать .torrent

Скачать

14 KB

Статус: проверено
Скачан: 1 раз
Размер: 2.53 GB
terms.php



Быстрый ответ

Имя:

      
Для отправки сообщений необходимо включить JavaScript
Показать сообщения:    

Текущее время: 05-Дек 03:30

Часовой пояс: UTC + 3


Вы можете начинать темы
Вы можете отвечать на сообщения
Вы не можете редактировать свои сообщения
Вы не можете удалять свои сообщения
Вы не можете голосовать в опросах
Вы не можете прикреплять файлы к сообщениям
Вы можете скачивать файлы