The Life and Times of Count Luchino Visconti / Жизнь и Эпоха графа Лукино Висконти (Adam Low/Адам Лоу) [2002, биографический, TVRip]


Статистика раздачи [Обновить пиров]
Размер:  1.11 GB   |    Зарегистрирован:  8 месяцев 17 дней   |    Скачан:  0 раз

Полного источника не было: Никогда

 
   
 
 
 

[Цитировать]

The Life and Times of Count Luchino Visconti / Жизнь и Эпоха графа Лукино Висконти
Дата/Год выпуска: 2002
Страна: United Kingdom
Жанр: биографический
Продолжительность: 01:42:44
Перевод: Субтитры
Доп. инфо о переводе: Ehsan Shakuri
Русские субтитры: есть
Формат субтитров: hardsub (неотключаемые)
Оригинальная аудиодорожка: английский
Режиссер: Adam Low/Адам Лоу
Описание: Жизнь, история семьи и кинематографический путь легендарного итальянского режиссера Лукино Висконти исследованы в документальном фильме Адама Лоу, премьера которого состоялась в 2002 году на Лондонском кинофестивале в связи с ретроспективой фильмов Висконти.
Знаменитые коллеги и современники Висконти участвуют в фильме - Клаудия Кардинале, Франко Дзеффирелли, Хельмут Бергер и др.
Доп. информация: некоторые интервью не переведены из-за отсутствия оригинальных субтитров.
качество: TVRip
формат: AVI
Видео: XviD, 512x288, 16:9, 1324 Kbps, 25.000 fps
Аудио: MP3, 112 Kbps, 44.1 KHz, 2 channels

MediaInfo

General
Complete name : D:Life and Times of Luchino Visconti.avi
Format : AVI
Format/Info : Audio Video Interleave
File size : 1.11 GiB
Duration : 1h 42mn
Overall bit rate : 1 544 Kbps
Writing application : Nandub v1.0rc2
Writing library : VirtualDub build 32817/release
Video
ID : 0
Format : MPEG-4 Visual
Format profile : Advanced Simple@L5
Format settings, BVOP : 2
Format settings, QPel : No
Format settings, GMC : No warppoints
Format settings, Matrix : Default (MPEG)
Codec ID : XVID
Codec ID/Hint : XviD
Duration : 1h 42mn
Bit rate : 1 407 Kbps
Width : 512 pixels
Height : 288 pixels
Display aspect ratio : 16:9
Frame rate : 25.000 fps
Color space : YUV
Chroma subsampling : 4:2:0
Bit depth : 8 bits
Scan type : Progressive
Compression mode : Lossy
Bits/(Pixel*Frame) : 0.382
Stream size : 1.01 GiB (91%)
Writing library : XviD 64
Audio
ID : 1
Format : MPEG Audio
Format version : Version 1
Format profile : Layer 3
Mode : Joint stereo
Mode extension : MS Stereo
Codec ID : 55
Codec ID/Hint : MP3
Duration : 1h 42mn
Bit rate mode : Constant
Bit rate : 128 Kbps
Channel(s) : 2 channels
Sampling rate : 44.1 KHz
Compression mode : Lossy
Stream size : 93.8 MiB (8%)
Alignment : Split accross interleaves
Interleave, duration : 40 ms (1.00 video frame)
Interleave, preload duration : 501 ms

Скриншоты

[teatrix.ru].t22843.torrent 
Торрент: Зарегистрирован [ 2016-03-21 00:41 ] · 3C6EA578CA0DB5521FB8968DBEAC1BB8402AE051

Скачать .torrent

Скачать

12 KB

Статус: проверено
Скачан: 0 раз
Размер: 1.11 GB
terms.php



Быстрый ответ

Имя:

      
Для отправки сообщений необходимо включить JavaScript
Показать сообщения:    

Текущее время: 07-Дек 11:39

Часовой пояс: UTC + 3


Вы можете начинать темы
Вы можете отвечать на сообщения
Вы не можете редактировать свои сообщения
Вы не можете удалять свои сообщения
Вы не можете голосовать в опросах
Вы не можете прикреплять файлы к сообщениям
Вы можете скачивать файлы