Лобстер / The Lobster (Йоргос Лантимос / Yorgos Lanthimos) [2015, Ирландия, Великобритания, Греция, Франция, Нидерланды, США, антиутопия, фантастика, драма, комедия, WEB-DLRip] DVO


Статистика раздачи [Обновить пиров]
Размер:  1.45 GB   |    Зарегистрирован:  9 месяцев 29 дней   |    Скачан:  1 раз

Полного источника не было: 1 месяц 2 дня

 
   
 
 
 

[Цитировать]

Лобстер / The Lobster
Год выпуска: 2015
Страна: Ирландия, Великобритания, Греция, Франция, Нидерланды, США
Жанр: антиутопия, фантастика, драма, комедия
Продолжительность: 01:56:14
Перевод: Любительский (двухголосый, закадровый)
Оригинальная аудиодорожка: нет
Русские субтитры: нет
Режиссер: Йоргос Лантимос / Yorgos Lanthimos
В ролях: Колин Фаррелл, Рэйчел Вайс, Джессика Барден, Оливия Колман, Эшли Дженсен, Ариана Лабед, Аггелики Папоулья, Джон Си Райли, Леа Сейду, Майкл Смайли
Описание: История любви, которая разворачивается в ближайшем будущем, где одиноких людей арестовывают и отправляют в жуткий отель. Там они обязаны найти себе пару за 45 дней. Если им это не удается, то их превращают в животное и отпускают в лес.
Качество: WEB-DLRip
Формат: AVI
Видео кодек: XviD
Аудио кодек: АС3
Видео: 720x400 (1.80:1), 24.000 fps, XviD build 73 ~1585 kbps avg, 0.23 bit/pixel
Аудио: 48 kHz, AC3 Dolby Digital, 2/0 (L,R) ch, ~192.00 kbps avg

Медиаинфо

F:\лобстер_2015_1,46.avi
General
Complete name : F:\лобстер_2015_1,46.avi
Format : AVI
Format/Info : Audio Video Interleave
File size : 1.45 GiB
Duration : 1h 56mn
Overall bit rate : 1 787 Kbps
Writing application : VirtualDubMod 1.5.10.3 | www.virtualdub-fr.org || (build 2550/release)
Writing library : VirtualDubMod build 2550/release
Video
Format : MPEG-4 Visual
Format profile : Streaming Video@L1
Format settings, BVOP : Yes
Format settings, QPel : No
Format settings, GMC : No warppoints
Format settings, Matrix : Custom
Codec ID : XVID
Codec ID/Hint : XviD
Duration : 1h 56mn
Bit rate : 1 586 Kbps
Width : 720 pixels
Height : 400 pixels
Display aspect ratio : 16/9
Frame rate : 24.000 fps
Original frame rate : 24.005 fps
Resolution : 24 bits
Colorimetry : 4:2:0
Scan type : Progressive
Bits/(Pixel*Frame) : 0.229
Stream size : 1.29 GiB (89%)
Writing library : XviD 73
Audio
Format : AC-3
Format/Info : Audio Coding 3
Codec ID : 2000
Duration : 1h 56mn
Bit rate mode : Constant
Bit rate : 192 Kbps
Channel(s) : 2 channels
Channel positions : L R
Sampling rate : 48.0 KHz
Stream size : 160 MiB (11%)
Alignment : Split accross interleaves
Interleave, duration : 42 ms (1.00 video frame)
Interleave, preload duration : 500 ms
[teatrix.ru].t22844.torrent 
Торрент: Зарегистрирован [ 2016-03-21 00:41 ] · 8B5260D63A3052FA7BA908E5D3FD0D7C8284E6

Скачать .torrent

Скачать

15 KB

Статус: проверено
Скачан: 1 раз
Размер: 1.45 GB
terms.php



Быстрый ответ

Имя:

      
Для отправки сообщений необходимо включить JavaScript
Показать сообщения:    

Текущее время: 19-Янв 22:15

Часовой пояс: UTC + 3


Вы можете начинать темы
Вы можете отвечать на сообщения
Вы не можете редактировать свои сообщения
Вы не можете удалять свои сообщения
Вы не можете голосовать в опросах
Вы не можете прикреплять файлы к сообщениям
Вы можете скачивать файлы