Уроки гармонии / Асланның сабақтары / Harmony Lessons (Эмир Байгазин / Emir Baigazin) [2013, Казахстан, Германия, Франция, драма, DVDRip] + Sub Rus


Статистика раздачи [Обновить пиров]
Размер:  1.46 GB   |    Зарегистрирован:  8 месяцев 20 дней   |    Скачан:  0 раз

Полного источника не было: Никогда

 
   
 
 
 

[Цитировать]

Уроки гармонии / Асланның сабақтары / Harmony Lessons
Страна: Казахстан, Германия, Франция
Жанр: драма
Год выпуска: 2013
Продолжительность: 01:54:39
Перевод: субтитры
Cубтитры: русские
Оригинальная аудиодорожка: казахская
Режиссер: Эмир Байгазин / Emir Baigazin
В ролях: Тимур Айдарбеков, Аслан Анарбаев, Мухтар Андасов, Анэля Адильбекова, Омар Адилов, Адлет Анарбеков, Даулет Анарбеков, Нурсултан Нурбергенов, Нурдаулет Оразымбетов, Ерасыл Нуржакып и другие
Описание: Во время медосмотра 13-летнего Аслана унижают перед толпой его одноклассников. Этот инцидент дает толчок развитию его скрытых расстройств личности. Терзаемый неуверенностью в себе, он стремится к чистоте и совершенству, и одержим желанием контролировать все вокруг себя.
Премьера (мир): 14 февраля 2013 г.
Дата релиза DVD (Казахстан): 12 августа 2015 г.

Доп. информация: Премия Берлинского кинофестиваля "Серебряный Медведь" за выдающиеся художественные достижения (2013 г.)
Сэмпл: http://sendfile.su/1196001
Качество видео: DVDRip (исходник – DVD-9)
Формат видео: AVI
Видео: 704x400 (16:9), 25 fps, XviD 1.4.0 build 73, ~1626 kbps avg, 0.231 bit/pixel
Аудио: 48 kHz, MP3, 2 ch, ~192 kbps avg
Формат субтитров: hardsub (неотключаемые)

MediaInfo

General
Complete name : Уроки гармонии (2013).avi
Format : AVI
Format/Info : Audio Video Interleave
File size : 1.46 GiB
Duration : 1h 54mn
Overall bit rate : 1 828 Kbps
Writing library : VirtualDub build 35576/release
Video
ID : 0
Format : MPEG-4 Visual
Format profile : Advanced Simple@L5
Format settings, BVOP : 2
Format settings, QPel : No
Format settings, GMC : No warppoints
Format settings, Matrix : Default (H.263)
Codec ID : XVID
Codec ID/Hint : XviD
Duration : 1h 54mn
Bit rate : 1 626 Kbps
Width : 704 pixels
Height : 400 pixels
Display aspect ratio : 16:9
Frame rate : 25.000 fps
Color space : YUV
Chroma subsampling : 4:2:0
Bit depth : 8 bits
Scan type : Progressive
Compression mode : Lossy
Bits/(Pixel*Frame) : 0.231
Stream size : 1.30 GiB (89%)
Writing library : XviD 73
Audio
ID : 1
Format : MPEG Audio
Format version : Version 1
Format profile : Layer 3
Mode : Joint stereo
Codec ID : 55
Codec ID/Hint : MP3
Duration : 1h 54mn
Bit rate mode : Constant
Bit rate : 192 Kbps
Channel(s) : 2 channels
Sampling rate : 48.0 KHz
Compression mode : Lossy
Stream size : 157 MiB (11%)
Alignment : Split accross interleaves
Interleave, duration : 40 ms (1.00 video frame)
Interleave, preload duratio : 500 ms

Скриншот c названием фильма

Скриншоты

[teatrix.ru].t22846.torrent 
Торрент: Зарегистрирован [ 2016-03-21 00:41 ] · 3C24C776455CD85BDA8CFB68A633C42B06DC8BA2

Скачать .torrent

Скачать

15 KB

Статус: проверено
Скачан: 0 раз
Размер: 1.46 GB
terms.php



Быстрый ответ

Имя:

      
Для отправки сообщений необходимо включить JavaScript
Показать сообщения:    

Текущее время: 10-Дек 19:40

Часовой пояс: UTC + 3


Вы можете начинать темы
Вы можете отвечать на сообщения
Вы не можете редактировать свои сообщения
Вы не можете удалять свои сообщения
Вы не можете голосовать в опросах
Вы не можете прикреплять файлы к сообщениям
Вы можете скачивать файлы