Чайка (Андрей Шляпин) [2013 г., Трагикомедия, WEB-DLRip] Пензенский областной драматический театр им. А. В. Луначарского (2-й показ)


 

[Цитировать]

Чайка
Второй премьерный показ (23.11.2013)
Название театра: Пензенский областной драматический театр им. А. В. Луначарского.
Год выпуска: 2013.
Жанр: Трагикомедия в трех действиях.
Продолжительность: 03:07:52.
Режиссер: Андрей Шляпин.
Действующие лица и исполнители:
Ирина Николаевна Аркадина, по мужу Треплева, актриса — заслуженная артистка России Галина Репная,
Константин Гаврилович Треплев, ее сын, молодой человек - Илья Кочетков,
Петр Николаевич Сорин, ее брат - Александр Куприянов,
Нина Михайловна Заречная, молодая девушка, дочь богатого помещика - Елена Павлова,
Илья Афанасьевич Шамраев, поручик в отставке, управляющий у Сорина - Григорий Мазур,
Полина Андреевна, его жена - заслуженная артистка России Наталья Старовойт,
Маша, его дочь - Анна Гальцева,
Борис Алексеевич Тригорин, беллетрист - Евгений Харитонов,
Евгений Сергеевич Дорн, врач - Павел Тачков,
Семен Семенович Медведенко, учитель - Юрий Землянский,
Яков, работник - Николай Потапов,
Повар - Анатолий Громов,
Горничная - Анна Арзямова.
О спектакле:
Это не «музейный» чеховский спектакль с обязательными шляпами, пенсне, ридикюлями и долгими нудными разговорами. Это яркое и яростное действо про таланты и поклонников, про борьбу старого и нового и, конечно же, — про «пять пудов любви». Словом, про то, про что и писал сто с лишним лет назад Антон Павлович Чехов для нас, нынешних.
Подготовленный, мыслящий зритель найдет здесь много намеков на знаменитые культурные феномены последнего столетия — от Казимира Малевича до Джона Кейджа и Ларса фон Триера, а те, кто еще только хочет поближе познакомиться с творчеством Чехова, наверняка будут увлечены
пронзительной историей любви...

Дополнительная информация:
Страна: Россия .
Подготовлено студией Вячеслава Борисова.
Автор: Антон Павлович Чехов.
Художник-постановщик: Олег Авдонин.
Художник по костюмам: Марина Смельчакова.
Художник по свету: Дмитрий Чуканов.
Музыкальное оформление: Александр Корольков.
Режиссер-хореограф: Алексей Зыков.
Педагог по вокалу: Ольга Роба.
Художественный руководитель театра: заслуженный артист России Сергей Казаков.
Премьера состоялась 22 ноября 2013 года.
Последний показ спектакля состоялся 18 мая 2014 года.

О спектакле.
Релиз
Рип sharky.

Качество видео:...WEB-DLRip
Формат:.................AVI
Видео:..704x400 (1.76:1), 25 fps, XviD build 47 ~1525 kbps avg, 0.22 bit/pixel
Аудио:..44.100 kHz, MPEG Layer 3, 2 ch, ~128.00 kbps avg

Отчет MI

Общее
Полное имя : Chajka_Penzenskij.ODT.im.Lunacharskogo_2-j.pokaz.2013.XviD.WEB-DLRip.fenixclub.avi
Format : AVI
Format/Info : Audio Video Interleave
Format profile : OpenDML
File size : 2.18 GiB
Duration : 3h 7mn
Overall bit rate : 1 661 Kbps
Writing application : VirtualDubMod 1.5.10.2 (build 2540/release)
Writing library : VirtualDubMod build 2540/release
Video
ID : 0
Format : MPEG-4 Visual
Format profile : Advanced Simple@L5
Format settings, BVOP : 1
Format settings, QPel : No
Format settings, GMC : No warppoints
Format settings, Matrix : Default (H.263)
Codec ID : XVID
Codec ID/Hint : XviD
Duration : 3h 7mn
Bit rate : 1 521 Kbps
Width : 704 pixels
Height : 400 pixels
Display aspect ratio : 16:9
Frame rate : 25.000 fps
Color space : YUV
Chroma subsampling : 4:2:0
Bit depth : 8 bits
Scan type : Progressive
Compression mode : Lossy
Bits/(Pixel*Frame) : 0.216
Stream size : 2.00 GiB (92%)
Writing library : XviD 1.2.0.dev47 (UTC 2006-11-01)
Audio
ID : 1
Format : MPEG Audio
Format version : Version 1
Format profile : Layer 3
Codec ID : 55
Codec ID/Hint : MP3
Duration : 3h 7mn
Bit rate mode : Constant
Bit rate : 128 Kbps
Channel(s) : 2 channels
Sampling rate : 44.1 KHz
Compression mode : Lossy
Stream size : 172 MiB (8%)
Alignment : Split accross interleaves
Interleave, duration : 40 ms (1.00 video frame)
Interleave, preload duratio : 500 ms
Writing library : LAME3.97
Encoding settings : -m s -V 4 -q 2 -lowpass 17 -b 128

Скриншоты


Альтернативный хост





Показать сообщения:    

Текущее время: 09-Дек 10:42

Часовой пояс: UTC + 3


Вы не можете начинать темы
Вы не можете отвечать на сообщения
Вы не можете редактировать свои сообщения
Вы не можете удалять свои сообщения
Вы не можете голосовать в опросах
Вы не можете прикреплять файлы к сообщениям
Вы не можете скачивать файлы