(Classical) Hermann Prey - A Life in Song (Schubert, Brahms, Schumann, Weber, Beethoven, Liszt, Loewe, Bach, Mozart, et al.) - 2011, FLAC (image+.cue) lossless


 

[Цитировать]

Hermann Prey - A Life in Song (Schubert, Brahms, Schumann, Weber, Beethoven, Liszt, Loewe, Bach, Mozart, et al.)
Жанр: Classical
Страна-производитель диска: EU
Год издания диска: 2011
Издатель (лейбл): EMI classics
Номер по каталогу: 50999 9 18493 2 8
Дата записи: 1956-1978
Аудиокодек: FLAC
Тип рипа: image+.cue
Битрейт аудио: lossless
Продолжительность: 713 min.
Источник: собственный рип
Наличие сканов в содержимом раздачи: да

больше картинок











Треклист

Disc 1
Schubert - Lieder nach Gedichten von Friedrich Schiller
1: Die Hoffnung (Es Reden Und Träumen Die Menschen), Op.87 No.2, D 637 ---------- 3:15
2: An Den Frühling (Willkommen, Schöner Jüngling), Op.172 No.5, D 283 ---------- 1:56
3: Der Alpenjäger (Willst Du Nicht Das Lämmlein Hüten?), Op.37 No.2, D 588 ---------- 5:53
4: Sehnsucht, D 52 ---------- 4:04
5: Gruppe Aus Dem Tartarus (Horch, Wie Murmeln Des Empörten Meeres), Op.24 No.1, D 583 ---------- 2:55
6: Der Pilgrim (Noch In Meines Lebens Lenze), Op.37 No.1, D 794 ---------- 4:58
Schubert - Lieder nach Gedichten von Johann Wolfgang von Goethe
7: Der Musensohn (Durch Feld Und Wald Zu Schweifen), Op.92 No.1, D 764 ---------- 2:10
8: Der Rattenfänger (Ich Bin Der Wohlbekannte Sänger), D 255 ---------- 2:20
9: Geheimes (Über Meines Liebchens Äugeln), Op.14 No.2, D 719 ---------- 1:37
Schubert - Gesang des Harfners, Op.12 (Drei Gesange aus Wilhem Meister)
10: Gesang Des Harfners (Wer Sich Der Einsamkeit Ergibt), Op.12 No.1, D 478 ---------- 4:12
11: Gesang Des Harfners (Wer Nie Sein Brot Mit Tränen Aß), Op.12 No.2, D 479 ---------- 4:51
12: Gesang Des Harfners (An Die Türen Will Ich Schleichen), Op.12 No.3, D 480 ---------- 2:25
13: Ganymed (Wie Im Morgenglanze Du Rings Mich Anglühst), Op.19 No.3, D 544 ---------- 4:15
14: Wandrers Nachtlied I (Der Du Von Dem Himmel Bist), Op.4 No.3, D 224 ---------- 1:52
Gerald Moore, piano
Brahms - 49 Deutsche Volkslieder
15: Wach Auf, Mein' Herzensschöne ---------- 2:22
16: Erlaube Mir, Fein's Mädchen ---------- 1:17
17: Feinsliebchen, Du Sollst Mir Nicht Barfuss Geh'n---------- 2:37
18: All Mein' Gedanken ---------- 3:41
19: Es Steht Ein Lind' ---------- 3:41
20: Mein Mädl Hat Einen Rosenmund ---------- 1:44
21: Die Sonne Scheint Nicht Mehr ---------- 1:10
22: Es Wohnet Ein Fiedler ---------- 1:14
23: Da Unten In Tale ---------- 1:52
24: Schöner Augen Schöne Strahlen ---------- 1:30
25: Ach, Englische Schäferin ---------- 2:12
26: In Stiller Nacht, Zur Ersten Wacht ---------- 3:29
Martin Malzer, piano
Disc 2
Schubert - Winterreise,, D 911
1: No.1: Gute Nacht ---------- 5:09
2: No.2: Die Wetterfahne ---------- 1:39
3: No.3: Gefrorne Tränen ---------- 2:29
4: No.4: Erstarrung ---------- 3:00
5: No.5: Der Lindenbaum ---------- 4:31
6: No.6: Wasserflut ---------- 4:13
7: No.7: Auf Dem Flusse ---------- 3:34
8: No.8: Rückblick ---------- 2:22
9: No.9: Irrlicht ---------- 2:54
10: No.10: Rast ---------- 2:55
11: No.11: Frühlingstraum ---------- 4:20
12: No.12: Einsamkeit ---------- 2:46
13: No.13: Die Post ---------- 2:21
14: No.14: Der Greise Kopf ---------- 2:53
15: No.15: Die Krähe ---------- 1:55
16: No.16: Letzte Hoffnung ---------- 2:12
17: No.17: Im Dorfe ---------- 3:07
18: No.18: Der Stürmische Morgen ---------- 0:52
19: No.19: Täuschung ---------- 1:28
20: No.20: Der Wegweiser ---------- 3:46
21: No.21: Das Wirtshaus ---------- 4:38
22: No.22: Mut ---------- 1:20
23: No.23: Die Nebensonnen ---------- 2:59
24: No.24: Der Leiermann ---------- 3:34
Karl Engel, piano
Disc 3
Schumann - Dichterliebe, Op.48
1: No.1: Im Wunderschönen Monat Mai ---------- 1:42
2: No.2: Aus Meinen Tränen Sprießen ---------- 0:55
3: No.3: Die Rose, Die Lilie , Die Taube ---------- 0:35
4: No.4: Wenn Ich In Deine Augen Seh' ---------- 1:37
5: No.5: Ich Will Meine Seele Tauchen ---------- 0:55
6: No.6: Im Rhein, Im Heiligen Strome ---------- 2:19
7: No.7. Ich Grolle Nicht ---------- 1:50
8: No.8: Und Wüssten's Die Blumen, Die Kleinen ---------- 1:13
9: No.9: Das Ist Ein Flöten Und Geigen ---------- 1:21
10: No.10: Hör' Ich Ein Liedchen Klingen ---------- 2:01
11: No.11: Ein Jüngling Liebt Ein Mädchen ---------- 1:07
12: No.12: Am Leuchtenden Sommermorgen ---------- 2:24
13: Nr: 13: Ich Hab' Im Traum Geweinet ---------- 2:31
14: No.14: Allnächtlich Im Traume Seh' Ich Dich ---------- 1:27
15: No.15: Aus Alten Märchen Winkt Es ---------- 2:28
16: No.16: Die Alten, Bösen Lieder ---------- 4:43
Schumann - Lieder nach Gedichten von J. Kerner, Op.35
17: No.1: Lust Der Sturmnacht ---------- 1:32
18: No.2: Stirb, Lieb' Und Freud'! ---------- 6:38
19: No.3: Wanderlied ---------- 2:46
20: No.4: Erstes Grün ---------- 2:20
21: No.5: Sehnsucht Nach Der Waldgegend ---------- 2:30
22: No.6: Auf Das Trinkglas Eines Verstorbenen Freundes ---------- 4:13
23: No.7: Wanderung ---------- 1:13
24: No.8: Stille Liebe ---------- 3:51
25: No.9: Frage ---------- 1:07
26: No.10: Stille Tränen ---------- 3:27
27: No.11: War Machte Dich So Krank? ---------- 2:16
28: No.12: Alte Laute ---------- 2:21
Karl Engel, piano
Disc 4
Schumann - Liederkreis, Op.39
1: No.1: In Der Fremde ---------- 2:04
2: No.2: Intermezzo ---------- 1:55
3: No.3: Waldesgespräch ---------- 1:57
4: No.4: Die Stille ---------- 1:32
5: No.5: Mondnacht ---------- 3:29
6: No.6: Schöne Fremde ---------- 1:18
7: No.7: Auf Einer Burg ---------- 2:51
8: No.8: In Der Fremde ---------- 1:36
9: No.9: Wehmut ---------- 2:33
10: No.10: Zwielicht ---------- 3:02
11: No.11: Im Walde ---------- 1:26
12: No.12: Frühlingsnacht ---------- 1:19
Karl Engel, piano
Weber - Lieder
13: Die Zeit ---------- 2:00
14: Meine Lieder, Meine Sänge ---------- 2:29
15: Klage ---------- 2:21
16: Was Zieht Zu Deinem Zauberkreise ---------- 3:19
17: Ich Sah Ein Röschen Am Wege Steh'n ---------- 1:57
18: Er An Sie ---------- 3:12
19: Meine Farben ---------- 1:37
20: Liebe-Glühen ---------- 2:12
21: Es Stürmt Auf Der Flur ---------- 1:48
Weber - Die Temperamente beim Verluste der Geliebten, Op.46
22: Der Leichtmütige ---------- 3:35
23: Der Schwermütige ---------- 3:46
24: Der Liebeswütige ---------- 2:47
25: Der Gleichmütige ---------- 2:50
Weber - Lieder
26: Der Gefangenen Sänger ---------- 1:29
27: Die Freien Sänger ---------- 0:56
28: Wenn Ich Ein Vöglein Wär' ---------- 1:26
29: Mein Schatzerl Is Hübsch ---------- 1:08
30: Abendsegen ---------- 3:45
31: Ich Denke Dein ---------- 1:58
32: Wunsch Und Entsagung ---------- 1:39
Leonard Hokanson, piano
Disc 5
Beethoven - Lieder
1: Adelaide (Einsam Wandelt Dein Freund Im Frühlingsgarten), Op.46 ---------- 6:45
2: No.7: Marmotte ---------- 0:48
3: Der Kuß (Ich War Bei Chloen Ganz Allein), Op.128 ---------- 2:07
4: An Die Hoffnung (Ob Ein Gott Sei?), Op.94 ---------- 7:43
5: No.2: Neue Liebe, Neues Leben ---------- 3:26
6: No.3: Flohlied Aus Faust ---------- 2:13
Gerald Moore, piano
Liszt - Lieder
7: Es Muß Ein Wunderbares Sein ---------- 1:56
8: Ein Fichtenbaum Steht Einsam S 309, 1 ---------- 2:27
9: Ihr Auge (Nimm Einen Strahl Der Sonne) S 310 ---------- 0:39
10: Die Vätergruft (Es Schritt Wohl Über Die Heide) S 281 ---------- 5:28
11: Anfangs Wollt Ich Fast Verzagen S 311 ---------- 1:51
12: Laßt Mich Ruhen S 317 ---------- 2:47
13: Morgens Steh Ich Auf Und Frage S 290 ---------- 1:58
14: Wandrers Nachtlied Ii (Über Allen Gipfeln Ist Ruh) S 306 ---------- 2:57
15: Wandrers Nachtlied I (Der Du Von Dem Himmel Bist) (3. Fassung) S 279, 3 ---------- 2:49
16: Die Drei Zigeuner (Drei Zigeuner Fand Ich Einmal Liegen An Einer Weide) S 320 ---------- 6:08
17: Blume Und Duft (In Frühlings Heiligtume) S 324 ---------- 2:01
18: Gesang Des Harfners (Wer Nie Sein Brot Mit Tränen Aß) S 297 ---------- 1:51
19: Die Fischerstochter Sitzt Am Strand S 325 ---------- 5:00
Liszt - Tre sonetti di Petrarca
20: No.1: Benedetto Sia 'l Giorno ---------- 4:58
21: No.2: Pace Non Trovo ---------- 4:31
22: No.3: I Vidi In Terra Angelici Costumi ---------- 4:53
Alexis Weissenberg, piano
Disc 6
1: Loewe - Der Schatzgräber ---------- 6:06
2: Schubert - Tischlied (Mich Ergreift, Ich Weiß Nicht Wie), D 234 ---------- 2:37
3: Schubert - Prometheus (Bedecke Deinen Himmel, Zeus), D 674 ---------- 5:48
4: Zelter - Neue Liebe, Neues Leben (Herz, Mein Herz, Was Soll Das Geben) ---------- 2:28
5: Reichardt - Heidenröslein (Sah Ein Knab Ein Röslein Stehn) ---------- 1:26
6: Reichardt - Blumengruß (Der Strauß, Den Ich Gepflücket) ---------- 0:47
7: Zelter - Gleich Und Gleich (Ein Blumenglöckchen Vom Boden) ---------- 1:33
8: Spohr - Ah! Mignon! ---------- 3:25
9: Schubert - Der Goldschmiedsgesell (Es Ist Doch Meine Nachbarin), D 560 ---------- 1:50
Karl Engel, piano
German Folk & Wayfarer Songs
10: Wem Gott Will Rechte Gunst Erweisen ---------- 1:24
11: Auf, Du Junger Wandersmann ---------- 1:55
12: Mit Dem Pfeil Und Bogen ---------- 1:27
13: Das Wandern Ist Des Müllers Lust ---------- 3:07
14: Auf, Auf Zum Fröhlichen Jagen ---------- 1:38
15: No.1: Sonntags Am Rhein ---------- 2:43
16: Es, Es, Es Und Es ---------- 2:34
Karl Engel, piano (15)
Bielefelder Kinderchor
Jungend-Kammerchor Bielefeld
Dora Wagner-Gartner & Mechthile Rohrmus, harps
Irma Stender-Rost, guitar
Konrad Alfing & Heinrich Alfing, Erich Penzel & Josef Bahr, horns
Willy Neugebauer & Kurt Schmidt, trumpet & flugelhorn
Friedrich Scherz, timpani
Detmolder Kammerorchester / Gerd Berg (10-14, 16)

17: Muss I Denn ---------- 2:24
18: Ach, Wie Ist's Möglich ---------- 2:12
19: Mädle Ruck, Ruck, Ruck ---------- 2:28
20: Im Wald Und Auf Der Heide ---------- 1:24
21: Ich Schieß Den Hirsch ---------- 2:15
22: Im Krug Zum Grünen Kranze ---------- 2:32
23: In Einem Kühlen Grunde ---------- 3:00
24: Ade Zur Guten Nacht ---------- 3:40
25: Hab Mei Wagen Vollgeladen ---------- 1:44
26: Du, Du Loegst Mir Am Herzen ---------- 1:51
27: Ich Weiss Nicht, Was Soll Es Bedeuten ---------- 3:03
28: Sah Ein Knab' Ein Röslein Steh'n ---------- 1:50
29: Ännchen Von Tharau ---------- 2:27
30: Kein Feuer, Keine Kohle ---------- 1:19
31: Morgen Muss Ich Fort Von Hier ---------- 2:38
32: Der Mond Ist Aufgegangen ---------- 3:44
Solisten des Symphonie-Orchester Graunke / Willy Mattes
Disc 7
Loewe - Lieder
1: Herr Oluf ---------- 5:50
2: Erlkönig ---------- 3:21
3: Die Wandelnde Glocke ---------- 1:56
4: Hochzeitlied ---------- 5:05
5: Der Getreue Eckart ---------- 4:58
6: Archibald Douglas (Ich Hab Es Getragen Sieben Jahr), Op.128 ---------- 10:09
7: Tom Der Reimer (Der Reimer Thomas Lag Am Bach), Op.135 ---------- 4:43
8: Heinrich Der Vogler ---------- 2:58
9: Graf Eberstein ---------- 3:16
10: Prinz Eugen (Zelte, Posten, Werdarufer), Op.92 ---------- 2:59
Gunther Weissenborn, piano
J. S. Bach - Cantata: Ich habe genug, BWV 82
11: Arie: Ich Habe Genug ---------- 8:57
12: Rezitativ: Ich Habe Genug ---------- 1:34
13: Arie: Schlummet Ein, Ihr Matten Augen ---------- 11:03
14: Rezitativ: Mein Gott! Wann Kommt Das Schöne: Nun! ---------- 0:55
15: Arie: Ich Freue Mich Auf Meinen Tod ---------- 4:25
Siegfried Arnold, cello
Heinz Morawietz, double bass
Willy Gerlach, oboe
Hannes Kastner, organ
Gewandhaus-Orchester Leipzig / Kurt Thomas

Disc 8
Keiser - Der Hochmuthige, gesturzte und wieder erhabene Croesus
1: Prangt Die Allerschönste Blume ---------- 2:05
2: Götter, Übt Barmherzigkeit ---------- 4:16
Berliner Philharmoniker / Wilhelm Bruckner-Ruggeberg
Gluck - Orfeo ed Euridice
3: Ach, Ich Habe Sie Verloren (3. Akt) ---------- 4:18
Berliner Symphoniker / Horst Stein
Mozart - Dongiovanni
4: Reich Mir Die Hand, Mein Leben (1. Akt) ---------- 2:59
5: Auf Denn Zum Feste (1. Akt) ---------- 1:23
6: Feinsliebchen, Komm Ans Fenster (3. Akt) ---------- 1:55
Erika Koth, sop. (4)
Berliner Symphoniker / Hans Zanotelli

Mozart - Die Zauberflote
7: Der Vogelfänger Bin Ich (1. Akt) ---------- 2:39
8: Ein Mädchen Oder Weibchen (3. Akt) ---------- 3:51
Berliner Symphoniker / Horst Stein
Mozart - Le nozze di Figaro
9: Der Prozess Schon Gewonnen...Ich Soll Ein Glück Entbehren (3. Akt) ---------- 4:57
Berliner Symphoniker / Berislav Klobucar
Moart - Cosi fan tutte
10: Mädchen, So Treibt Ihr's Mit Allen (2. Akt) ---------- 2:32
Nordwestdeutsche Philharmonie / Wilhelm Schuchter
Rossini - Il barbiere di Siviglia
11: Ich Bin Das Faktotum (1. Akt) ---------- 4:43
12: Strahlt Auf Mich Der Blitz Des Goldes (1. Akt) ---------- 7:27
13: Also Ich, Meinst Du Es Wirklich? (1. Akt) ---------- 4:42
Erika Koth, sop. (13)
Richard Holm, ten. (12)
Berliner Symphoniker / Wilhelm Schuchter

Flotow - Martha
14: Lass Mich Euch Fragen (3. Akt) ---------- 2:45
Chor der Bayerischen Staatsoper
Bayerisches Staatsorchester / Robert Heger

Bizet - Carmen
15: Euren Toast!...Auf In Den Kampf (2. Akt) ---------- 4:58
Ursula Schirrmacher & Ursula Gust, sop.
Christa Ludwig, mez.-sop.
Georg Volker, bar.
Iwan Rebroff, bs.
Chor der Deutschen Oper Berlin
Berliner Symphoniker / Horst Stein

Gounod - Faust
16: Da Ich Nun Verlassen Soll (2. Akt) ---------- 3:03
Berliner Symphoniker / Wilhelm Schuchter
Marschner - Hans Heiling
17: An Jenem Tag (1. Akt) ---------- 5:33
Berliner Symphoniker / Wilhelm Schuchter
Humperdinck - Konigskinder
18: Verdorben (2. Akt) ---------- 7:25
Berliner Mozartchor
Berliner Symphoniker / Horst Stein

Wagner - Tannhauser
19: Wie Todesahnung... O Du Mein Holder Abendstern (3. Akt) ---------- 4:54
Berliner Symphoniker / Horst Stein
Disc 9
Leoncavallo - Pagliacci
1: Nedda! Silvio, Zu Dieser Stunde? (1. Act) ---------- 8:56
Anneliese Rothenberger, sop.
Berliner Symphoniker / Wilhelm Schuchter

R. Strauss - Arabella
2: Sie Woll'n Mich Heiraten (2. Akt) ---------- 10:38
Anneliese Rothenberger, sop.
Symphonie-Orchester Graunke / Kurt Graunke

R.Strauss - Ariadne auf Naxos
3: Ach, So Versuchet Doch Ein Kleines Lied ---------- 2:26
Sylvia Geszty, sop.
Staatskapelle Dresden / Rudolf Kempe

Korngold - Die tote Stadt
4: Mein Sehnen, Mein Wähnen (2. Akt) ---------- 4:13
Berliner Symphoniker / Horst Stein
Tchaikovsky (Чайковский) - Eugene Onegin
5: Ist Dies Denn Wirklich Die Tatjana? (3. Akt) ---------- 2:17
Tchaikovsky (Чайковский) - Pique Dame
6: Als Deine Liebe Du Mir Schenktest (2. Akt) ---------- 4:11
Bayerisches Staatsorchester / Meinhard von Zallinger
Millocker - Gasparone
7: Denk' Ich An Dich, Schwarze Ninetta (1. Akt) ---------- 1:39
8: O, Dass Ich Doch Ein Räuber Wär' (1. Akt) ---------- 2:04
9: Hüten Sie Sie... Liebe Erhellt Die Ganze Welt (1. Akt) ---------- 2:08
10: Dunkelrote Rosen (2. Akt) ---------- 2:17
11: Die Carabinieri Ziehen Ein (3. Akt) ---------- 1:36
Anneliese Rothenberger, sop. (9, 11)
Chor des Theaters am Gartnerplatz
Munchen Symphonie-Orchester Graunke / Carl Michalski

Suppe - Boccaccio
12: Ein Stern Zu Sein (2. Akt) ---------- 2:21
13: Hab' Ich Nur Deiner Liebe (2. Akt) ---------- 2:58
14: Rosen Für Dich (1. Akt) ---------- 3:51
15: Florenz Hat Schöne Frauen (3. Akt) ---------- 5:08
Anneliese Rothenberger, sop. (13-15)
Heinz Hoppe, ten. (12)
Munchen Symphonie-Orchester Graunke / Carl Michalski

16: Loewe - On The Street Where You Live (2. Akt) ---------- 3:08
17: C. Porter - So On Love (1. Akt) ---------- 2:32
18: I. Berlin - They Say It's Wonderful (1. Akt) ---------- 3:05
19: R. Rodgers - If I Loved You (1. Akt) ---------- 2:30
Symphonie-Orchester Graunke / Carl Michalski
Disc 10
Kreutzer - Das Nachtlager von Granada
1: Ein Schütz' Bin Ich (1. Akt) ---------- 1:56
2: Die Nacht Ist Schön... Fürwahr Es Ist Ein Abendteuer (2. Akt) ---------- 11:26
Nessler - Der Trompeter von Sackingen
3: Möchte In Die Ferne Scheifen (1. Akt) ---------- 1:54
4: Das Ist Im Leben Hässlich Eingerichtet... Behüt' Dich Gott! (2. Akt) ---------- 6:31
Helga Hildebrand, sop.
Karl Christian Kohn, bs.
Chor der Deutschen Oper Berlin
Berliner Symphoniker / Wilhelm Schuchter

Lortzing - Zer und Zimmermann
5: Verraten! Von Euch Verraten!...Die Macht Des Zapters (1. Akt)---------- 6:39
Lortzing - Der Wildschutz
6: Wie Freundlich Strahlt... Heiterkeit Und Fröhlichkeit (3. Akt) ---------- 5:07
Berliner Symphoniker / Horst Stein
Lortzing - Undine
7: Nun Ist's Vollbracht!...O Kehr Zurück...Schwanensang, Schwanenklang ---------- 8:26
Anneliese Rothenberger, sop.
RIAS-Kammerchor
Radio-Sinfonie-Orchester Berlin / Robert Heger

J. Strauss II - Der Zigeunerbaron
8: Her Die Hand, Es Muss Ja Sein (2. Akt) ---------- 2:40
9: Als Flotter Geist... Ja, Das Alles Auf Ehr' (1. Akt) ---------- 2:47
J. Strauss II - Furstin Ninetta
10: Einst Träumte Mir (3. Akt) ---------- 3:52
J. Strauss II - Casanova
11: Stadt Der Liebe, Stadt Der Freunden ---------- 2:50
12: In Hispaniens Heissem Sonnenland ---------- 2:19
Chor der Bayerischen Staatsoper (8)
Symphonie-Orchester Graunke / Franz Allers

Millocker - Der Bettelstudent
13: Und Da Soll Man Noch Galant Sein...Ach Ich Hab' Sie Ja Nur Auf Die Schulter Geküsst (1. Akt) ---------- 4:42
14: Mit Geld Und Guten Worten (2. Akt) ---------- 2:16
Symphonie-Orchester Graunke / Franz Allers
Исполнители:
Hermann Prey & Various Artists

Содержание индексной карты (.CUE)

Disc 1

REM GENRE Classical
REM DATE 2011
REM DISCID 9211491A
REM COMMENT "ExactAudioCopy v1.0b4"
CATALOG 5099991849427
PERFORMER "Hermann Prey & Gerald Moore piano (1-14) Martin Malzer piano (15-26)"
TITLE "Hermann Prey - A life in song CD 1"
FILE "CD1.flac" WAVE
TRACK 01 AUDIO
TITLE "Schubert, Franz - D 637 Hoffnung (Schiller)"
PERFORMER "Hermann Prey & Gerald Moore piano (1-14) Martin Malzer piano (15-26)"
ISRC DEC626001039
INDEX 01 00:00:00
TRACK 02 AUDIO
TITLE "Schubert, Franz - D 283 An den Fruhling (Schiller)"
PERFORMER "Hermann Prey & Gerald Moore piano (1-14) Martin Malzer piano (15-26)"
ISRC DEC626001040
INDEX 00 03:10:40
INDEX 01 03:15:58
TRACK 03 AUDIO
TITLE "Schubert, Franz - D 588 Der Alpenjager (Schiller)"
PERFORMER "Hermann Prey & Gerald Moore piano (1-14) Martin Malzer piano (15-26)"
ISRC DEC626001041
INDEX 00 05:06:60
INDEX 01 05:12:05
TRACK 04 AUDIO
TITLE "Schubert, Franz - D 52 Sehnsucht (Schiller)"
PERFORMER "Hermann Prey & Gerald Moore piano (1-14) Martin Malzer piano (15-26)"
ISRC DEC626001042
INDEX 00 11:00:13
INDEX 01 11:05:38
TRACK 05 AUDIO
TITLE "Schubert, Franz - D 583 Gruppe aus dem Tartarus (Schiller)"
PERFORMER "Hermann Prey & Gerald Moore piano (1-14) Martin Malzer piano (15-26)"
ISRC DEC626001043
INDEX 00 15:04:23
INDEX 01 15:09:43
TRACK 06 AUDIO
TITLE "Schubert, Franz - D 794 Der Pilgrim (Schiller)"
PERFORMER "Hermann Prey & Gerald Moore piano (1-14) Martin Malzer piano (15-26)"
ISRC DEC626001044
INDEX 00 17:59:23
INDEX 01 18:04:43
TRACK 07 AUDIO
TITLE "Schubert, Franz - D 764 Der Musensohn (Goethe)"
PERFORMER "Hermann Prey & Gerald Moore piano (1-14) Martin Malzer piano (15-26)"
ISRC DEC626001045
INDEX 00 22:56:68
INDEX 01 23:03:40
TRACK 08 AUDIO
TITLE "Schubert, Franz - D 255 Der Rattenfanger (Goethe)"
PERFORMER "Hermann Prey & Gerald Moore piano (1-14) Martin Malzer piano (15-26)"
ISRC DEC626001046
INDEX 00 25:08:73
INDEX 01 25:14:23
TRACK 09 AUDIO
TITLE "Schubert, Franz - D 719 Geheimes (Goethe)"
PERFORMER "Hermann Prey & Gerald Moore piano (1-14) Martin Malzer piano (15-26)"
ISRC DEC626001047
INDEX 00 27:29:10
INDEX 01 27:34:23
TRACK 10 AUDIO
TITLE "Schubert, Franz - D 478 Harfenspieler I (Goethe)"
PERFORMER "Hermann Prey & Gerald Moore piano (1-14) Martin Malzer piano (15-26)"
ISRC DEC626001048
INDEX 00 29:06:70
INDEX 01 29:12:10
TRACK 11 AUDIO
TITLE "Schubert, Franz - D 479 Harfenspieler II (Goethe)"
PERFORMER "Hermann Prey & Gerald Moore piano (1-14) Martin Malzer piano (15-26)"
ISRC DEC626001049
INDEX 00 33:23:53
INDEX 01 33:24:73
TRACK 12 AUDIO
TITLE "Schubert, Franz - D 480 Harfenspieler III (Goethe)"
PERFORMER "Hermann Prey & Gerald Moore piano (1-14) Martin Malzer piano (15-26)"
ISRC DEC626001050
INDEX 00 38:15:70
INDEX 01 38:16:43
TRACK 13 AUDIO
TITLE "Schubert, Franz - D 544 Ganymed (Goethe)"
PERFORMER "Hermann Prey & Gerald Moore piano (1-14) Martin Malzer piano (15-26)"
ISRC DEC626001051
INDEX 00 40:34:63
INDEX 01 40:42:23
TRACK 14 AUDIO
TITLE "Schubert, Franz - D 224 Wandrers Nachtlied (Goethe)"
PERFORMER "Hermann Prey & Gerald Moore piano (1-14) Martin Malzer piano (15-26)"
ISRC DEC626001052
INDEX 00 44:52:13
INDEX 01 44:57:35
TRACK 15 AUDIO
TITLE "Brahms, J. - WoO 33, 49 Deutsche Volkslieder, Heft III - 16. Wach auf, mein' ..."
PERFORMER "Hermann Prey & Gerald Moore piano (1-14) Martin Malzer piano (15-26)"
ISRC DEC625801080
INDEX 00 46:40:58
INDEX 01 46:49:50
TRACK 16 AUDIO
TITLE "Brahms, J. - WoO 33, 49 Deutsche Volkslieder, Heft I - 02. Erlaube mir, fein'..."
PERFORMER "Hermann Prey & Gerald Moore piano (1-14) Martin Malzer piano (15-26)"
ISRC DEC625801081
INDEX 00 49:08:00
INDEX 01 49:12:03
TRACK 17 AUDIO
TITLE "Brahms, J. - WoO 33, 49 Deutsche Volkslieder, Heft II - 12. Feinsliebchen, du..."
PERFORMER "Hermann Prey & Gerald Moore piano (1-14) Martin Malzer piano (15-26)"
ISRC DEC625801082
INDEX 00 50:25:10
INDEX 01 50:29:20
TRACK 18 AUDIO
TITLE "Brahms, J. - WoO 33, 49 Deutsche Volkslieder, Heft V - 30. All mein' Gedanken"
PERFORMER "Hermann Prey & Gerald Moore piano (1-14) Martin Malzer piano (15-26)"
ISRC DEC625801083
INDEX 00 53:02:38
INDEX 01 53:06:73
TRACK 19 AUDIO
TITLE "Brahms, J. - WoO 33, 49 Deutsche Volkslieder, Heft VI - 41. Es steht ein' Lind'"
PERFORMER "Hermann Prey & Gerald Moore piano (1-14) Martin Malzer piano (15-26)"
ISRC DEC625801084
INDEX 00 56:44:63
INDEX 01 56:48:33
TRACK 20 AUDIO
TITLE "Brahms, J. - WoO 33, 49 Deutsche Volkslieder, Heft IV - 25. Mein Madel hat ei..."
PERFORMER "Hermann Prey & Gerald Moore piano (1-14) Martin Malzer piano (15-26)"
ISRC DEC625801085
INDEX 00 60:27:28
INDEX 01 60:30:20
TRACK 21 AUDIO
TITLE "Brahms, J. - WoO 33, 49 Deutsche Volkslieder, Heft I - 05. Die Sonne scheint ..."
PERFORMER "Hermann Prey & Gerald Moore piano (1-14) Martin Malzer piano (15-26)"
ISRC DEC625801086
INDEX 00 62:10:63
INDEX 01 62:14:48
TRACK 22 AUDIO
TITLE "Brahms, J. - WoO 33, 49 Deutsche Volkslieder, Heft VI - 36. Es wohnet ein Fie..."
PERFORMER "Hermann Prey & Gerald Moore piano (1-14) Martin Malzer piano (15-26)"
ISRC DEC625801087
INDEX 00 63:21:44
INDEX 01 63:25:43
TRACK 23 AUDIO
TITLE "Brahms, J. - WoO 33, 49 Deutsche Volkslieder, Heft I - 06. Da unten im Tale"
PERFORMER "Hermann Prey & Gerald Moore piano (1-14) Martin Malzer piano (15-26)"
ISRC DEC625801088
INDEX 00 64:35:05
INDEX 01 64:40:10
TRACK 24 AUDIO
TITLE "Brahms, J. - WoO 33, 49 Deutsche Volkslieder, Heft VI - 39. Schoner Augen sch..."
PERFORMER "Hermann Prey & Gerald Moore piano (1-14) Martin Malzer piano (15-26)"
ISRC DEC625801089
INDEX 00 66:28:40
INDEX 01 66:32:50
TRACK 25 AUDIO
TITLE "Brahms, J. - WoO 33, 49 Deutsche Volkslieder, Heft II - 08. Ach, englische Sc..."
PERFORMER "Hermann Prey & Gerald Moore piano (1-14) Martin Malzer piano (15-26)"
ISRC DEC625801090
INDEX 00 67:59:68
INDEX 01 68:03:30
TRACK 26 AUDIO
TITLE "Brahms, J. - WoO 33, 49 Deutsche Volkslieder, Heft VI - 42. In stiller Nacht"
PERFORMER "Hermann Prey & Gerald Moore piano (1-14) Martin Malzer piano (15-26)"
ISRC DEC625801091
INDEX 00 70:10:68
INDEX 01 70:15:65

Disc 2

REM GENRE Vocal
REM DATE 1961
REM DISCID 4D10AE18
REM COMMENT "ExactAudioCopy v1.0b4"
CATALOG 5099991849625
PERFORMER "Prey & Karl Engel"
TITLE "Hermann Prey - A life in song CD 2"
FILE "CD2.flac" WAVE
TRACK 01 AUDIO
TITLE "Schubert, Franz - D 911 Winterreise - 01 - Gute Nacht"
PERFORMER "Prey & Karl Engel"
ISRC DEA348701320
INDEX 01 00:00:00
TRACK 02 AUDIO
TITLE "Schubert, Franz - D 911 Winterreise - 02 - Die Wetterfahne"
PERFORMER "Prey & Karl Engel"
ISRC DEA348701321
INDEX 00 05:06:45
INDEX 01 05:09:67
TRACK 03 AUDIO
TITLE "Schubert, Franz - D 911 Winterreise - 03 - Gerfrorne Tranen"
PERFORMER "Prey & Karl Engel"
ISRC DEA348701322
INDEX 00 06:46:47
INDEX 01 06:49:42
TRACK 04 AUDIO
TITLE "Schubert, Franz - D 911 Winterreise - 04 - Erstarrung"
PERFORMER "Prey & Karl Engel"
ISRC DEA348701323
INDEX 00 09:15:57
INDEX 01 09:18:72
TRACK 05 AUDIO
TITLE "Schubert, Franz - D 911 Winterreise - 05 - Der Lindenbaum"
PERFORMER "Prey & Karl Engel"
ISRC DEA348701324
INDEX 00 12:16:13
INDEX 01 12:19:05
TRACK 06 AUDIO
TITLE "Schubert, Franz - D 911 Winterreise - 06 - Wasserflut"
PERFORMER "Prey & Karl Engel"
ISRC DEA348701325
INDEX 00 16:47:35
INDEX 01 16:50:45
TRACK 07 AUDIO
TITLE "Schubert, Franz - D 911 Winterreise - 07 - Auf dem Flusse"
PERFORMER "Prey & Karl Engel"
ISRC DEA348701326
INDEX 00 21:01:52
INDEX 01 21:04:27
TRACK 08 AUDIO
TITLE "Schubert, Franz - D 911 Winterreise - 08 - Ruckblick"
PERFORMER "Prey & Karl Engel"
ISRC DEA348701327
INDEX 00 24:36:30
INDEX 01 24:39:02
TRACK 09 AUDIO
TITLE "Schubert, Franz - D 911 Winterreise - 09 - Irrlicht"
PERFORMER "Prey & Karl Engel"
ISRC DEA348701328
INDEX 00 26:59:20
INDEX 01 27:01:50
TRACK 10 AUDIO
TITLE "Schubert, Franz - D 911 Winterreise - 10 - Rast"
PERFORMER "Prey & Karl Engel"
ISRC DEA348701329
INDEX 00 29:53:35
INDEX 01 29:56:07
TRACK 11 AUDIO
TITLE "Schubert, Franz - D 911 Winterreise - 11 - Fruhlingstraum"
PERFORMER "Prey & Karl Engel"
ISRC DEA348701330
INDEX 00 32:49:27
INDEX 01 32:52:05
TRACK 12 AUDIO
TITLE "Schubert, Franz - D 911 Winterreise - 12 - Einsamkeit"
PERFORMER "Prey & Karl Engel"
ISRC DEA348701331
INDEX 00 37:09:07
INDEX 01 37:13:00
TRACK 13 AUDIO
TITLE "Schubert, Franz - D 911 Winterreise - 13 - Die Post"
PERFORMER "Prey & Karl Engel"
ISRC DEA348701332
INDEX 00 39:55:42
INDEX 01 39:59:62
TRACK 14 AUDIO
TITLE "Schubert, Franz - D 911 Winterreise - 14 - Der greise Kopf"
PERFORMER "Prey & Karl Engel"
ISRC DEA348701333
INDEX 00 42:18:50
INDEX 01 42:21:52
TRACK 15 AUDIO
TITLE "Schubert, Franz - D 911 Winterreise - 15 - Die Krahe"
PERFORMER "Prey & Karl Engel"
ISRC DEA348701334
INDEX 00 45:12:20
INDEX 01 45:15:12
TRACK 16 AUDIO
TITLE "Schubert, Franz - D 911 Winterreise - 16 - Letzte Hoffnung"
PERFORMER "Prey & Karl Engel"
ISRC DEA348701335
INDEX 00 47:07:22
INDEX 01 47:10:15
TRACK 17 AUDIO
TITLE "Schubert, Franz - D 911 Winterreise - 17 - Im Dorfe"
PERFORMER "Prey & Karl Engel"
ISRC DEA348701336
INDEX 00 49:19:70
INDEX 01 49:23:00
TRACK 18 AUDIO
TITLE "Schubert, Franz - D 911 Winterreise - 18 - Der sturmische Morgen"
PERFORMER "Prey & Karl Engel"
ISRC DEA348701337
INDEX 00 52:27:47
INDEX 01 52:30:42
TRACK 19 AUDIO
TITLE "Schubert, Franz - D 911 Winterreise - 19 - Tauschung"
PERFORMER "Prey & Karl Engel"
ISRC DEA348701338
INDEX 00 53:19:60
INDEX 01 53:23:30
TRACK 20 AUDIO
TITLE "Schubert, Franz - D 911 Winterreise - 20 - Der Wegweiser"
PERFORMER "Prey & Karl Engel"
ISRC DEA348701339
INDEX 00 54:48:55
INDEX 01 54:51:57
TRACK 21 AUDIO
TITLE "Schubert, Franz - D 911 Winterreise - 21 - Das Wirtshaus"
PERFORMER "Prey & Karl Engel"
ISRC DEA348701340
INDEX 00 58:34:40
INDEX 01 58:38:02
TRACK 22 AUDIO
TITLE "Schubert, Franz - D 911 Winterreise - 22 - Mut!"
PERFORMER "Prey & Karl Engel"
ISRC DEA348701341
INDEX 00 63:13:27
INDEX 01 63:16:50
TRACK 23 AUDIO
TITLE "Schubert, Franz - D 911 Winterreise - 23 - Die Nebensonnen"
PERFORMER "Prey & Karl Engel"
ISRC DEA348701342
INDEX 00 64:33:55
INDEX 01 64:36:52
TRACK 24 AUDIO
TITLE "Schubert, Franz - D 911 Winterreise - 24 - Der Leiermann"
PERFORMER "Prey & Karl Engel"
ISRC DEA348701343
INDEX 00 67:32:47
INDEX 01 67:36:37

Disc 3

REM GENRE Vocal
REM DATE 1962
REM DISCID 9D0EE81C
REM COMMENT "ExactAudioCopy v1.0b4"
CATALOG 5099991849823
PERFORMER "Prey & Karl Engel"
TITLE "Hermann Prey - A life in song CD 3"
FILE "CD3.flac" WAVE
TRACK 01 AUDIO
TITLE "Schumann, R. - op. 48 Dichterliebe - 01 - Im wunderschonen Monat Mai"
PERFORMER "Prey & Karl Engel"
ISRC DEA341000491
INDEX 01 00:00:00
TRACK 02 AUDIO
TITLE "Schumann, R. - op. 48 Dichterliebe - 02 - Aus meinen Tranen sprießen"
PERFORMER "Prey & Karl Engel"
ISRC DEA341000492
INDEX 01 01:42:20
TRACK 03 AUDIO
TITLE "Schumann, R. - op. 48 Dichterliebe - 03 - Die Rose, die Lilie, die Taube, die..."
PERFORMER "Prey & Karl Engel"
ISRC DEA341000493
INDEX 01 02:37:65
TRACK 04 AUDIO
TITLE "Schumann, R. - op. 48 Dichterliebe - 04 - Wenn ich in deine Augen seh'"
PERFORMER "Prey & Karl Engel"
ISRC DEA341000494
INDEX 01 03:12:70
TRACK 05 AUDIO
TITLE "Schumann, R. - op. 48 Dichterliebe - 05 - Ich will meine Seele tauchen"
PERFORMER "Prey & Karl Engel"
ISRC DEA341000495
INDEX 01 04:50:47
TRACK 06 AUDIO
TITLE "Schumann, R. - op. 48 Dichterliebe - 06 - Im Rhein, im heiligen Strome"
PERFORMER "Prey & Karl Engel"
ISRC DEA341000496
INDEX 01 05:45:67
TRACK 07 AUDIO
TITLE "Schumann, R. - op. 48 Dichterliebe - 07 - Ich grolle nicht"
PERFORMER "Prey & Karl Engel"
ISRC DEA341000497
INDEX 01 08:05:25
TRACK 08 AUDIO
TITLE "Schumann, R. - op. 48 Dichterliebe - 08 - Und wußten's die Blumen, die kleinen"
PERFORMER "Prey & Karl Engel"
ISRC DEA341000498
INDEX 01 09:55:30
TRACK 09 AUDIO
TITLE "Schumann, R. - op. 48 Dichterliebe - 09 - Das ist ein Floten und Geigen"
PERFORMER "Prey & Karl Engel"
ISRC DEA341000499
INDEX 01 11:09:07
TRACK 10 AUDIO
TITLE "Schumann, R. - op. 48 Dichterliebe - 10 - Hor' ich das Liedchen klingen"
PERFORMER "Prey & Karl Engel"
ISRC DEA341000500
INDEX 01 12:30:55
TRACK 11 AUDIO
TITLE "Schumann, R. - op. 48 Dichterliebe - 11 - Ein Jungling liebt ein Madchen"
PERFORMER "Prey & Karl Engel"
ISRC DEA341000501
INDEX 01 14:32:02
TRACK 12 AUDIO
TITLE "Schumann, R. - op. 48 Dichterliebe - 12 - Am leuchtenden Sommermorgen"
PERFORMER "Prey & Karl Engel"
ISRC DEA341000502
INDEX 01 15:39:05
TRACK 13 AUDIO
TITLE "Schumann, R. - op. 48 Dichterliebe - 13 - Ich hab' im Traum geweinet"
PERFORMER "Prey & Karl Engel"
ISRC DEA341000503
INDEX 01 18:03:52
TRACK 14 AUDIO
TITLE "Schumann, R. - op. 48 Dichterliebe - 14 - Allnachtlich im Traume seh' ich dich"
PERFORMER "Prey & Karl Engel"
ISRC DEA341000503
INDEX 01 20:35:30
TRACK 15 AUDIO
TITLE "Schumann, R. - op. 48 Dichterliebe - 15 - Aus alten Marchen winkt es"
PERFORMER "Prey & Karl Engel"
ISRC DEA341000505
INDEX 01 22:02:42
TRACK 16 AUDIO
TITLE "Schumann, R. - op. 48 Dichterliebe - 16 - Die alten, bosen Lieder"
PERFORMER "Prey & Karl Engel"
ISRC DEA341000506
INDEX 01 24:31:37
TRACK 17 AUDIO
TITLE "Schumann, R. - op. 35 Kerner-Lieder Nr. 01. Lust der Sturmnacht"
PERFORMER "Prey & Karl Engel"
ISRC DEA341000543
INDEX 00 29:06:30
INDEX 01 29:14:70
TRACK 18 AUDIO
TITLE "Schumann, R. - op. 35 Kerner-Lieder Nr. 02. Stirb, Lieb' und Freud'!"
PERFORMER "Prey & Karl Engel"
ISRC DEA341000544
INDEX 01 30:47:37
TRACK 19 AUDIO
TITLE "Schumann, R. - op. 35 Kerner-Lieder Nr. 03. Wanderlied"
PERFORMER "Prey & Karl Engel"
ISRC DEA341000545
INDEX 01 37:25:70
TRACK 20 AUDIO
TITLE "Schumann, R. - op. 35 Kerner-Lieder Nr. 04. Erstes Grun"
PERFORMER "Prey & Karl Engel"
ISRC DEA341000546
INDEX 01 40:12:35
TRACK 21 AUDIO
TITLE "Schumann, R. - op. 35 Kerner-Lieder Nr. 05. Sehnsucht nach der Waldgegend"
PERFORMER "Prey & Karl Engel"
ISRC DEA341000547
INDEX 01 42:33:10
TRACK 22 AUDIO
TITLE "Schumann, R. - op. 35 Kerner-Lieder Nr. 06. Auf das Trinkglas eines verstorbe..."
PERFORMER "Prey & Karl Engel"
ISRC DEA341000548
INDEX 01 45:04:00
TRACK 23 AUDIO
TITLE "Schumann, R. - op. 35 Kerner-Lieder Nr. 07. Wanderung"
PERFORMER "Prey & Karl Engel"
ISRC DEA341000548
INDEX 01 49:17:60
TRACK 24 AUDIO
TITLE "Schumann, R. - op. 35 Kerner-Lieder Nr. 08. Stille Liebe"
PERFORMER "Prey & Karl Engel"
ISRC DEA341000550
INDEX 01 50:31:55
TRACK 25 AUDIO
TITLE "Schumann, R. - op. 35 Kerner-Lieder Nr. 09. Frage"
PERFORMER "Prey & Karl Engel"
ISRC DEA341000551
INDEX 01 54:23:20
TRACK 26 AUDIO
TITLE "Schumann, R. - op. 35 Kerner-Lieder Nr. 10. Stille Tranen"
PERFORMER "Prey & Karl Engel"
ISRC DEA341000552
INDEX 01 55:31:17
TRACK 27 AUDIO
TITLE "Schumann, R. - op. 35 Kerner-Lieder Nr. 11. Wer machte dich so krank"
PERFORMER "Prey & Karl Engel"
ISRC DEA341000553
INDEX 01 58:58:32
TRACK 28 AUDIO
TITLE "Schumann, R. - op. 35 Kerner-Lieder Nr. 12. Alte Laute"
PERFORMER "Prey & Karl Engel"
ISRC DEA341000553
INDEX 01 61:15:25

Disc 4

REM GENRE Vocal
PERFORMER "Prey & Karl Engel (1-12), Leonard Hokanson (13-32)"
TITLE "Hermann Prey - A life in song (disc 4)"
FILE "CD4.flac" WAVE
TRACK 01 AUDIO
TITLE "Schumann, R. - op. 39 Liederkreis - 01 - In der Fremde (I)"
INDEX 01 00:00:00
TRACK 02 AUDIO
TITLE "Schumann, R. - op. 39 Liederkreis - 02 - Intermezzo"
INDEX 01 02:04:63
TRACK 03 AUDIO
TITLE "Schumann, R. - op. 39 Liederkreis - 03 - Waldesgesprach"
INDEX 01 03:59:68
TRACK 04 AUDIO
TITLE "Schumann, R. - op. 39 Liederkreis - 04 - Die Stille"
INDEX 01 05:57:55
TRACK 05 AUDIO
TITLE "Schumann, R. - op. 39 Liederkreis - 05 - Mondnacht"
INDEX 01 07:29:73
TRACK 06 AUDIO
TITLE "Schumann, R. - op. 39 Liederkreis - 06 - Schone Fremde"
INDEX 01 10:59:33
TRACK 07 AUDIO
TITLE "Schumann, R. - op. 39 Liederkreis - 07 - Auf einer Burg"
INDEX 01 12:17:73
TRACK 08 AUDIO
TITLE "Schumann, R. - op. 39 Liederkreis - 08 - In der Fremde (II)"
INDEX 01 15:09:48
TRACK 09 AUDIO
TITLE "Schumann, R. - op. 39 Liederkreis - 09 - Wehmut"
INDEX 01 16:46:28
TRACK 10 AUDIO
TITLE "Schumann, R. - op. 39 Liederkreis - 10 - Zwielicht"
INDEX 01 19:20:18
TRACK 11 AUDIO
TITLE "Schumann, R. - op. 39 Liederkreis - 11 - Im Walde"
INDEX 01 22:22:65
TRACK 12 AUDIO
TITLE "Schumann, R. - op. 39 Liederkreis - 12 - Fruhlingsnacht"
INDEX 01 23:49:05
TRACK 13 AUDIO
TITLE "Weber, C. M. von - op 13 Gesange (Heft 1) - No.5 Die Zeit"
INDEX 00 25:00:44
INDEX 01 25:08:67
TRACK 14 AUDIO
TITLE "Weber, C. M. von - op 15 Gesange (Heft 2) - No.1 Meine Lieder, meine Sange"
INDEX 01 27:09:35
TRACK 15 AUDIO
TITLE "Weber, C. M. von - op 15 Gesange (Heft 2) - No.2 Klage"
INDEX 01 29:38:40
TRACK 16 AUDIO
TITLE "Weber, C. M. von - op 15 Gesange (Heft 2) - No.4 Was zieht zu deinem Zauberkreise"
INDEX 01 32:00:18
TRACK 17 AUDIO
TITLE "Weber, C. M. von - Ich sah ein Roschen am Wege steh'n"
INDEX 01 35:19:20
TRACK 18 AUDIO
TITLE "Weber, C. M. von - op 15 Gesange (Heft 2) - No.6 Er an sie"
INDEX 01 37:17:03
TRACK 19 AUDIO
TITLE "Weber, C. M. von - op 23 Gesange (Heft 3) - No.1 Meine Farben"
INDEX 01 40:29:50
TRACK 20 AUDIO
TITLE "Weber, C. M. von - op 25 Gesange (Heft 4) - No.1 Liebe-Gluhen"
INDEX 01 42:07:00
TRACK 21 AUDIO
TITLE "Weber, C. M. von - op 30 Gesange (Heft 5) - No.2 Es sturmt auf der Flur"
INDEX 01 44:19:35
TRACK 22 AUDIO
TITLE "Weber, C. M. von - op 46 Die Temperamente beim Verluste der Geliebten - No.1 Der Leichtmuthige"
INDEX 01 46:08:28
TRACK 23 AUDIO
TITLE "Weber, C. M. von - op 46 Die Temperamente beim Verluste der Geliebten - No.2 Der Schwermuthige"
INDEX 01 49:44:23
TRACK 24 AUDIO
TITLE "Weber, C. M. von - op 46 Die Temperamente beim Verluste der Geliebten - No.3 Der Liebewuthige"
INDEX 01 53:30:23
TRACK 25 AUDIO
TITLE "Weber, C. M. von - op 46 Die Temperamente beim Verluste der Geliebten - No.4 Der Gleichmuthige"
INDEX 01 56:17:43
TRACK 26 AUDIO
TITLE "Weber, C. M. von - op 47 Balladen und Lieder - No.1 Die gefangenen Sanger"
INDEX 01 59:07:48
TRACK 27 AUDIO
TITLE "Weber, C. M. von - op 47 Balladen und Lieder - No.2 Die freien Sanger"
INDEX 01 60:36:68
TRACK 28 AUDIO
TITLE "Weber, C. M. von - op 54 Volkslieder (Sammlung I) - No.6 Wenn ich ein Voglein war'"
INDEX 01 61:33:63
TRACK 29 AUDIO
TITLE "Weber, C. M. von - op 64 Volkslieder (Sammlung II) - No.1 Mein Schatzerl is hubsch"
INDEX 01 63:00:60
TRACK 30 AUDIO
TITLE "Weber, C. M. von - op 64 Volkslieder (Sammlung II) - No.5 Abendsegen"
INDEX 01 64:09:43
TRACK 31 AUDIO
TITLE "Weber, C. M. von - op 66 Gesange (Heft 15) - No.2 Rosen im Haare"
INDEX 01 67:54:68
TRACK 32 AUDIO
TITLE "Weber, C. M. von - op 66 Gesange (Heft 15) - No.6 Wunsch und Entsagung"
INDEX 01 69:53:18

Disc 5

REM GENRE Vocal
PERFORMER "Prey & Gerald Moore (1-6), Alexis Weissenberg (7-22)"
TITLE "Hermann Prey - A life in song (disc 5)"
FILE "CD5.flac" WAVE
TRACK 01 AUDIO
TITLE "Beethoven, L. van - op. 46, Adelaide (Friedrich von Matthisson)"
INDEX 01 00:00:00
TRACK 02 AUDIO
TITLE "Beethoven, L. van - op. 52, 8 Lieder - No.7. Marmotte (Johann Wolfgang von Goethe)"
INDEX 00 06:40:30
INDEX 01 06:45:11
TRACK 03 AUDIO
TITLE "Beethoven, L. van - op. 128 Anette (Der Kuss)"
INDEX 00 07:28:24
INDEX 01 07:33:22
TRACK 04 AUDIO
TITLE "Beethoven, L. van - op. 94, An die Hoffnung"
INDEX 00 09:36:61
INDEX 01 09:41:13
TRACK 05 AUDIO
TITLE "Beethoven, L. van - op. 75, 6 Gesange - No.2. Neue Liebe, neues Leben"
INDEX 00 17:20:25
INDEX 01 17:24:15
TRACK 06 AUDIO
TITLE "Beethoven, L. van - op. 75 No.3 Der Floh"
INDEX 00 20:47:42
INDEX 01 20:51:03
TRACK 07 AUDIO
TITLE "Liszt, Franz - S. 314 Es muß ein Wunderbares sein (Redwitz)"
INDEX 00 22:58:24
INDEX 01 23:04:10
TRACK 08 AUDIO
TITLE "Liszt, Franz - S. 309 Ein Fichtenbaum steht einsam (Heine)"
INDEX 01 25:00:24
TRACK 09 AUDIO
TITLE "Liszt, Franz - S. 310 Ihr Auge (Reilstab)"
INDEX 01 27:27:56
TRACK 10 AUDIO
TITLE "Liszt, Franz - S. 281 Die Vatergruft (Uhland)"
INDEX 01 28:07:46
TRACK 11 AUDIO
TITLE "Liszt, Franz - S. 311 Anfangs wollt ich fast verzagen (Heine)"
INDEX 01 33:36:13
TRACK 12 AUDIO
TITLE "Liszt, Franz - S. 317 Laßt mich ruhen (Fallersleben)"
INDEX 01 35:28:11
TRACK 13 AUDIO
TITLE "Liszt, Franz - S. 290 Morgens steh' ich auf und frage (Heine)"
INDEX 01 38:15:11
TRACK 14 AUDIO
TITLE "Liszt, Franz - S. 75 Uber allen Gipfeln ist Ruh (Goethe)"
INDEX 01 40:13:71
TRACK 15 AUDIO
TITLE "Liszt, Franz - S. 279 Der du von dem Himmel bist (Goethe)"
INDEX 01 43:11:41
TRACK 16 AUDIO
TITLE "Liszt, Franz - S. 320 Die drei Zigeuner (Lenau)"
INDEX 01 46:01:31
TRACK 17 AUDIO
TITLE "Liszt, Franz - S. 324 Blume und Duft (Hebbel)"
INDEX 01 52:10:08
TRACK 18 AUDIO
TITLE "Liszt, Franz - S. 297 Wer nie sein Brot mit Tranen aß (Goethe)"
INDEX 01 54:11:33
TRACK 19 AUDIO
TITLE "Liszt, Franz - S. 325 Die Fischerstochter (Coronini)"
INDEX 01 56:02:33
TRACK 20 AUDIO
TITLE "Liszt, Franz - S. 158 Tre Sonetti del Petrarca - No.1 Benedetto sia 'I giorno"
INDEX 01 61:02:36
TRACK 21 AUDIO
TITLE "Liszt, Franz - S. 158 Tre Sonetti del Petrarca - No.2 Pace non trovo"
INDEX 01 66:00:43
TRACK 22 AUDIO
TITLE "Liszt, Franz - S. 158 Tre Sonetti del Petrarca - No.3 I vidi in terra angelici costumi"
INDEX 01 70:31:61

Disc 6

REM GENRE Opera
PERFORMER "Hermann Prey"
TITLE "Great Moment of ... (disc 3)"
FILE "CD6.flac" WAVE
TRACK 01 AUDIO
TITLE "Der Schatzgraber - Loewe"
INDEX 01 00:00:00
TRACK 02 AUDIO
TITLE "Tischlied D234 - Schubert"
INDEX 00 06:02:07
INDEX 01 06:06:02
TRACK 03 AUDIO
TITLE "Prometheus D674 - Schubert"
INDEX 00 08:40:12
INDEX 01 08:43:12
TRACK 04 AUDIO
TITLE "Neue Liebe, neues Leben - Zelter"
INDEX 00 14:27:12
INDEX 01 14:31:20
TRACK 05 AUDIO
TITLE "Heideroslein - Reichardt"
INDEX 00 16:56:60
INDEX 01 16:59:30
TRACK 06 AUDIO
TITLE "BlumengruB - Reichardt"
INDEX 00 18:22:45
INDEX 01 18:26:02
TRACK 07 AUDIO
TITLE "Gleich und gleich - Zelter"
INDEX 00 19:12:65
INDEX 01 19:13:32
TRACK 08 AUDIO
TITLE "An Mignon op. 41,3 - Spohr"
INDEX 00 20:43:05
INDEX 01 20:46:35
TRACK 09 AUDIO
TITLE "Der Goldschniedsgesell D560 - Schubert"
INDEX 00 24:08:52
INDEX 01 24:12:00
TRACK 10 AUDIO
TITLE "Wem Gott will rechte Gunst erwisen"
INDEX 00 25:56:72
INDEX 01 26:02:42
TRACK 11 AUDIO
TITLE "Auf, du junger Wandersmann"
INDEX 00 27:25:35
INDEX 01 27:27:02
TRACK 12 AUDIO
TITLE "Mit dem Pfeil und Bogen"
INDEX 00 29:22:22
INDEX 01 29:22:27
TRACK 13 AUDIO
TITLE "Das Wandern ist des Mullers Lust"
INDEX 00 30:49:00
INDEX 01 30:49:52
TRACK 14 AUDIO
TITLE "Auf, auf zum frohlichen Jagen"
INDEX 00 33:56:07
INDEX 01 33:57:00
TRACK 15 AUDIO
TITLE "Sonntags am Rhein op. 36,1 - Schumann"
INDEX 00 35:33:63
INDEX 01 35:35:12
TRACK 16 AUDIO
TITLE "Es, es, es und es"
INDEX 00 38:16:50
INDEX 01 38:18:67
TRACK 17 AUDIO
TITLE "Mub i denn"
INDEX 00 40:51:55
INDEX 01 40:53:40
TRACK 18 AUDIO
TITLE "Ach, Wie Ist's Moglich"
INDEX 00 43:14:10
INDEX 01 43:18:07
TRACK 19 AUDIO
TITLE "Madle ruck, ruck, ruck"
INDEX 00 45:27:07
INDEX 01 45:30:27
TRACK 20 AUDIO
TITLE "Im Wald und auf der Heide"
INDEX 00 47:55:10
INDEX 01 47:58:42
TRACK 21 AUDIO
TITLE "Ich schieB' den Hirsch"
INDEX 00 49:19:25
INDEX 01 49:22:52
TRACK 22 AUDIO
TITLE "Im Krug zom grunen Kranze"
INDEX 00 51:35:05
INDEX 01 51:38:15
TRACK 23 AUDIO
TITLE "In einem kuhlen Grunde"
INDEX 00 54:07:05
INDEX 01 54:10:35
TRACK 24 AUDIO
TITLE "Ade zur guten Nacht"
INDEX 00 57:07:17
INDEX 01 57:10:45
TRACK 25 AUDIO
TITLE "Hab mei Wagen vollgelade"
INDEX 00 60:47:20
INDEX 01 60:51:20
TRACK 26 AUDIO
TITLE "Du, du liegst mir am Herzen"
INDEX 00 62:33:17
INDEX 01 62:35:55
TRACK 27 AUDIO
TITLE "Ich weiB nicht, was soll es bedeuten"
INDEX 00 64:23:60
INDEX 01 64:27:15
TRACK 28 AUDIO
TITLE "Sah ein Knab ein Roslein stehn"
INDEX 00 67:29:22
INDEX 01 67:30:40
TRACK 29 AUDIO
TITLE "Annchen von Tharau"
INDEX 00 69:18:27
INDEX 01 69:20:40
TRACK 30 AUDIO
TITLE "Kein Feuer, keine Kohle"
INDEX 00 71:44:42
INDEX 01 71:47:52
TRACK 31 AUDIO
TITLE "Morgen muB ich fort von hier"
INDEX 00 73:04:62
INDEX 01 73:07:47
TRACK 32 AUDIO
TITLE "Der Mond ist aufgegangen"
INDEX 00 75:43:40
INDEX 01 75:45:50

Disc 7

REM GENRE Vocal
PERFORMER "Hermann Prey & Gunther Weissenborn (1-10), Gewandhaus-Orchester Leipzig (11-17)"
TITLE "Hermann Prey - A life in song (disc 7)"
FILE "CD7.flac" WAVE
TRACK 01 AUDIO
TITLE "Loewe, Carl - op. 2 Drei Balladen - No.2 Herr Oluf"
INDEX 01 00:00:00
TRACK 02 AUDIO
TITLE "Loewe, Carl - op. 1 Drei Balladen - No.3 Erlkonig"
INDEX 01 05:50:53
TRACK 03 AUDIO
TITLE "Loewe, Carl - op. 20 Drei Balladen - No.3. Die wandelnde Glocke"
INDEX 01 09:12:25
TRACK 04 AUDIO
TITLE "Loewe, Carl - op. 20 Drei Balladen - No.1. Hochzeitslied"
INDEX 01 11:08:46
TRACK 05 AUDIO
TITLE "Loewe, Carl - op. 44 Drei Balladen - No.2. Der getreue Eckardt"
INDEX 01 16:13:64
TRACK 06 AUDIO
TITLE "Loewe, Carl - op. 128 Archibald Douglas"
INDEX 01 21:12:29
TRACK 07 AUDIO
TITLE "Loewe, Carl - op. 135a Tom der Reimer"
INDEX 01 31:21:73
TRACK 08 AUDIO
TITLE "Loewe, Carl - op. 56 No.1 Heinrich der Vogler"
INDEX 01 36:05:15
TRACK 09 AUDIO
TITLE "Loewe, Carl - op. 9 Gesammelte Lieder - Heft VI Heitere Gesange - No.5. Graf Eberstein"
INDEX 01 39:03:16
TRACK 10 AUDIO
TITLE "Loewe, Carl - op. 92 Prinz Eugen"
INDEX 01 42:20:02
TRACK 11 AUDIO
TITLE "Bach, J. S. - BWV 82 Ich habe genug - 01 - Aria (B) Ich habe genug, Ich habe den Heiland"
INDEX 00 45:10:34
INDEX 01 45:19:70
TRACK 12 AUDIO
TITLE "Bach, J. S. - BWV 82 Ich habe genug - 02 - Recitativo (B) Ich habe genug! Mein Trost ist nur allein"
INDEX 01 54:17:39
TRACK 13 AUDIO
TITLE "Bach, J. S. - BWV 82 Ich habe genug - 03 - Aria (B) Schlummert ein, ihr matten Augen"
INDEX 01 55:51:51
TRACK 14 AUDIO
TITLE "Bach, J. S. - BWV 82 Ich habe genug - 04 - Recitativo (B) Mein Gott! wenn kommt das schone Nun!"
INDEX 01 66:55:33
TRACK 15 AUDIO
TITLE "Bach, J. S. - BWV 82 Ich habe genug - 05 - Aria (B) Ich freue mich auf meinen Tod"
INDEX 01 67:50:42

Disc 8

REM GENRE Vocal
REM DISCID EE11F313
REM COMMENT "ExactAudioCopy v1.0b4"
CATALOG 5099991850829
PERFORMER "Hermann Prey &"
TITLE "Hermann Prey - A life in song CD 8"
FILE "CD8.flac" WAVE
TRACK 01 AUDIO
TITLE "Keiser, Reinhard - Croesus - Prangt die allerschonste Blume"
PERFORMER "Hermann Prey &"
ISRC DEA349800806
INDEX 01 00:00:00
TRACK 02 AUDIO
TITLE "Keiser, Reinhard - Croesus - Gotter, ubt Barmherzigkeit"
PERFORMER "Hermann Prey &"
ISRC DEA349800807
INDEX 00 02:03:01
INDEX 01 02:05:56
TRACK 03 AUDIO
TITLE "Gluck, Christoph - Orphee et Euridice - Che faro senza Euridice"
PERFORMER "Hermann Prey &"
ISRC DEA349800808
INDEX 00 06:16:69
INDEX 01 06:22:36
TRACK 04 AUDIO
TITLE "Mozart, W. A. - KV 527, Don Giovanni - Reich mir die Hand, mein Leben"
PERFORMER "Hermann Prey &"
ISRC DEA349800809
INDEX 00 10:34:43
INDEX 01 10:40:64
TRACK 05 AUDIO
TITLE "Mozart, W. A. - KV 527, Don Giovanni - Auf denn zum Feste"
PERFORMER "Hermann Prey &"
ISRC DEA349800810
INDEX 00 13:37:18
INDEX 01 13:40:62
TRACK 06 AUDIO
TITLE "Mozart, W. A. - KV 527, Don Giovanni - Feinsliebchen, komm ans Fenster"
PERFORMER "Hermann Prey &"
ISRC DEA349800811
INDEX 00 15:01:12
INDEX 01 15:04:20
TRACK 07 AUDIO
TITLE "Mozart, W. A. - KV 620 Die Zauberflote - Der Vogelfanger bin ich ja"
PERFORMER "Hermann Prey &"
ISRC DEA349800812
INDEX 00 16:57:12
INDEX 01 16:59:63
TRACK 08 AUDIO
TITLE "Mozart, W. A. - KV 620 Die Zauberflote - Ein Madchen oder Weibchen"
PERFORMER "Hermann Prey &"
ISRC DEA349800813
INDEX 00 19:36:56
INDEX 01 19:39:11
TRACK 09 AUDIO
TITLE "Mozart, W. A. - KV 492 Le Nozze Di Figaro - Der Prozeß schon gewonnen..."
PERFORMER "Hermann Prey &"
ISRC DEA349800814
INDEX 00 23:26:46
INDEX 01 23:30:67
TRACK 10 AUDIO
TITLE "Mozart, W. A. - KV 588 Cosi Fan Tutte - Madchen, so treibt ihr's mit allen"
PERFORMER "Hermann Prey &"
ISRC DEA341000470
INDEX 00 28:22:23
INDEX 01 28:28:31
TRACK 11 AUDIO
TITLE "Rossini, G. - Il Barbiere di Siviglia - Ich bin das Faktotum"
PERFORMER "Hermann Prey &"
ISRC DEA340000599
INDEX 00 30:55:43
INDEX 01 31:00:41
TRACK 12 AUDIO
TITLE "Rossini, G. - Il Barbiere di Siviglia - Strahlt auf mich der Blitz des Goldes"
PERFORMER "Hermann Prey &"
ISRC DEA340000600
INDEX 00 35:38:60
INDEX 01 35:43:50
TRACK 13 AUDIO
TITLE "Rossini, G. - Il Barbiere di Siviglia - Also ich, meinst du es wirklich"
PERFORMER "Hermann Prey &"
ISRC DEA340000601
INDEX 00 43:06:39
INDEX 01 43:11:02
TRACK 14 AUDIO
TITLE "Flotow, Friedrich von - Martha - Laßt mich euch fragen"
PERFORMER "Hermann Prey &"
ISRC DEC628600514
INDEX 00 47:47:58
INDEX 01 47:53:17
TRACK 15 AUDIO
TITLE "Bizet, G. - WD 31 Carmen - Euren Toast!...Auf in den Kampf"
PERFORMER "Hermann Prey &"
ISRC DEA349800817
INDEX 00 50:34:57
INDEX 01 50:38:69
TRACK 16 AUDIO
TITLE "Gounod, Charles - Faust - Da ich nun verlassen soll"
PERFORMER "Hermann Prey &"
ISRC DEA341000480
INDEX 00 55:32:29
INDEX 01 55:37:64
TRACK 17 AUDIO
TITLE "Marschner, Heinrich - Hans Heiling - An jenem Tag"
PERFORMER "Hermann Prey &"
ISRC DEA341000486
INDEX 00 58:36:70
INDEX 01 58:41:26
TRACK 18 AUDIO
TITLE "Humperdinck, E. - Konigskinder - Verdorben! Gestorben!"
PERFORMER "Hermann Prey &"
ISRC DEA349800818
INDEX 00 64:09:51
INDEX 01 64:15:05
TRACK 19 AUDIO
TITLE "Wagner, R. - WWV 70 Tannhauser - Wie Todesahnung..."
PERFORMER "Hermann Prey &"
ISRC DEA349800833
INDEX 00 71:35:58
INDEX 01 71:40:45

Disc 9

REM DISCID 190FF713
REM COMMENT "ExactAudioCopy v1.0b4"
CATALOG 5099991851024
PERFORMER "Unknown Artist"
TITLE "Unknown Title"
FILE "CD9.flac" WAVE
TRACK 01 AUDIO
TITLE "Track01"
PERFORMER "Unknown Artist"
ISRC DEA341000479
INDEX 01 00:00:00
TRACK 02 AUDIO
TITLE "Track02"
PERFORMER "Unknown Artist"
ISRC DEA349605758
INDEX 00 08:51:08
INDEX 01 08:56:48
TRACK 03 AUDIO
TITLE "Track03"
PERFORMER "Unknown Artist"
ISRC DEA349200507
INDEX 00 19:29:51
INDEX 01 19:34:55
TRACK 04 AUDIO
TITLE "Track04"
PERFORMER "Unknown Artist"
ISRC DEA341000487
INDEX 00 21:57:16
INDEX 01 22:01:40
TRACK 05 AUDIO
TITLE "Track05"
PERFORMER "Unknown Artist"
ISRC DEA349800819
INDEX 00 26:09:34
INDEX 01 26:14:67
TRACK 06 AUDIO
TITLE "Track06"
PERFORMER "Unknown Artist"
ISRC DEA349800820
INDEX 00 28:27:67
INDEX 01 28:32:06
TRACK 07 AUDIO
TITLE "Track07"
PERFORMER "Unknown Artist"
ISRC DEA340200716
INDEX 00 32:39:30
INDEX 01 32:43:69
TRACK 08 AUDIO
TITLE "Track08"
PERFORMER "Unknown Artist"
ISRC DEA340200718
INDEX 00 34:20:50
INDEX 01 34:23:30
TRACK 09 AUDIO
TITLE "Track09"
PERFORMER "Unknown Artist"
ISRC DEA340200719
INDEX 00 36:25:71
INDEX 01 36:28:07
TRACK 10 AUDIO
TITLE "Track10"
PERFORMER "Unknown Artist"
ISRC DEA340200722
INDEX 00 38:34:70
INDEX 01 38:37:04
TRACK 11 AUDIO
TITLE "Track11"
PERFORMER "Unknown Artist"
ISRC DEA340200725
INDEX 00 40:52:04
INDEX 01 40:54:58
TRACK 12 AUDIO
TITLE "Track12"
PERFORMER "Unknown Artist"
ISRC DEA340200726
INDEX 00 42:27:08
INDEX 01 42:31:36
TRACK 13 AUDIO
TITLE "Track13"
PERFORMER "Unknown Artist"
ISRC DEA340200727
INDEX 00 44:49:60
INDEX 01 44:53:02
TRACK 14 AUDIO
TITLE "Track14"
PERFORMER "Unknown Artist"
ISRC DEA340200730
INDEX 00 47:47:66
INDEX 01 47:51:46
TRACK 15 AUDIO
TITLE "Track15"
PERFORMER "Unknown Artist"
ISRC DEA340200732
INDEX 00 51:40:11
INDEX 01 51:42:68
TRACK 16 AUDIO
TITLE "Track16"
PERFORMER "Unknown Artist"
ISRC DEA341000459
INDEX 00 56:46:40
INDEX 01 56:51:24
TRACK 17 AUDIO
TITLE "Track17"
PERFORMER "Unknown Artist"
ISRC DEA341000458
INDEX 00 59:54:67
INDEX 01 59:59:34
TRACK 18 AUDIO
TITLE "Track18"
PERFORMER "Unknown Artist"
ISRC DEA341000460
INDEX 00 62:27:64
INDEX 01 62:31:62
TRACK 19 AUDIO
TITLE "Track19"
PERFORMER "Unknown Artist"
ISRC DEA341000461
INDEX 00 65:33:52
INDEX 01 65:37:06

Disc 10

REM DISCID C60EE50E
REM COMMENT "ExactAudioCopy v1.0b4"
CATALOG 5099991851222
PERFORMER "Unknown Artist"
TITLE "Unknown Title"
FILE "CD10.flac" WAVE
TRACK 01 AUDIO
TITLE "Track01"
PERFORMER "Unknown Artist"
ISRC DEA349800821
INDEX 01 00:00:00
TRACK 02 AUDIO
TITLE "Track02"
PERFORMER "Unknown Artist"
ISRC DEA349800822
INDEX 00 01:53:08
INDEX 01 01:56:23
TRACK 03 AUDIO
TITLE "Track03"
PERFORMER "Unknown Artist"
ISRC DEA349800823
INDEX 00 13:19:21
INDEX 01 13:23:02
TRACK 04 AUDIO
TITLE "Track04"
PERFORMER "Unknown Artist"
ISRC DEA349800824
INDEX 00 15:16:56
INDEX 01 15:17:51
TRACK 05 AUDIO
TITLE "Track05"
PERFORMER "Unknown Artist"
ISRC DEA349800825
INDEX 00 21:45:08
INDEX 01 21:48:74
TRACK 06 AUDIO
TITLE "Track06"
PERFORMER "Unknown Artist"
ISRC DEA349800826
INDEX 00 28:23:15
INDEX 01 28:28:57
TRACK 07 AUDIO
TITLE "Track07"
PERFORMER "Unknown Artist"
ISRC DEA349800827
INDEX 00 33:30:08
INDEX 01 33:36:33
TRACK 08 AUDIO
TITLE "Track08"
PERFORMER "Unknown Artist"
ISRC DEA349800828
INDEX 00 41:58:34
INDEX 01 42:03:14
TRACK 09 AUDIO
TITLE "Track09"
PERFORMER "Unknown Artist"
ISRC DEA349800829
INDEX 00 44:39:61
INDEX 01 44:43:57
TRACK 10 AUDIO
TITLE "Track10"
PERFORMER "Unknown Artist"
ISRC DEA349800830
INDEX 00 47:27:45
INDEX 01 47:31:27
TRACK 11 AUDIO
TITLE "Track11"
PERFORMER "Unknown Artist"
ISRC DEA349800831
INDEX 00 51:21:68
INDEX 01 51:23:43
TRACK 12 AUDIO
TITLE "Track12"
PERFORMER "Unknown Artist"
ISRC DEA349800832
INDEX 00 54:12:10
INDEX 01 54:14:42
TRACK 13 AUDIO
TITLE "Track13"
PERFORMER "Unknown Artist"
ISRC DEA349800838
INDEX 00 56:29:55
INDEX 01 56:33:70
TRACK 14 AUDIO
TITLE "Track14"
PERFORMER "Unknown Artist"
ISRC DEA349800839
INDEX 00 61:13:44
INDEX 01 61:16:58

Лог создания рипа (.LOG)

Disc 1

Exact Audio Copy V1.0 beta 4 from 7. December 2014
EAC extraction logfile from 20. October 2015, 4:52
Hermann Prey & Gerald Moore piano (1-14) Martin Mälzer piano (15-26) / Hermann Prey - A life in song CD 1
Used drive : HL-DT-STDVDRAM GH24NS90 Adapter: 1 ID: 0
Read mode : Secure
Utilize accurate stream : Yes
Defeat audio cache : No
Make use of C2 pointers : Yes
Read offset correction : 6
Overread into Lead-In and Lead-Out : No
Fill up missing offset samples with silence : Yes
Delete leading and trailing silent blocks : No
Null samples used in CRC calculations : Yes
Used interface : Native Win32 interface for Win NT & 2000
Used output format : User Defined Encoder
Selected bitrate : 896 kBit/s
Quality : High
Add ID3 tag : No
Command line compressor : C:\Program Files (x86)\Exact Audio Copy\Flac\flac.exe
Additional command line options : -8 -V -T "ARTIST=%artist%" -T "TITLE=%title%" -T "ALBUM=%albumtitle%" -T "DATE=%year%" -T "TRACKNUMBER=%tracknr%" -T "GENRE=%genre%" -T "PERFORMER=%albuminterpret%" -T "COMPOSER=%composer%" %haslyrics%–tag-from-file=LYRICS="%lyricsfile%"%haslyrics% -T "ALBUMARTIST=%albumartist%" -T "DISCNUMBER=%cdnumber%" -T "TOTALDISCS=%totalcds%" -T "TOTALTRACKS=%numtracks%" -T "COMMENT=%comment%" %source% -o %dest%
TOC of the extracted CD
Track | Start | Length | Start sector | End sector
---------------------------------------------------------
1 | 0:00.00 | 3:15.58 | 0 | 14682
2 | 3:15.58 | 1:56.22 | 14683 | 23404
3 | 5:12.05 | 5:53.33 | 23405 | 49912
4 | 11:05.38 | 4:04.05 | 49913 | 68217
5 | 15:09.43 | 2:55.00 | 68218 | 81342
6 | 18:04.43 | 4:58.72 | 81343 | 103764
7 | 23:03.40 | 2:10.58 | 103765 | 113572
8 | 25:14.23 | 2:20.00 | 113573 | 124072
9 | 27:34.23 | 1:37.62 | 124073 | 131409
10 | 29:12.10 | 4:12.63 | 131410 | 150372
11 | 33:24.73 | 4:51.45 | 150373 | 172242
12 | 38:16.43 | 2:25.55 | 172243 | 183172
13 | 40:42.23 | 4:15.12 | 183173 | 202309
14 | 44:57.35 | 1:52.15 | 202310 | 210724
15 | 46:49.50 | 2:22.28 | 210725 | 221402
16 | 49:12.03 | 1:17.17 | 221403 | 227194
17 | 50:29.20 | 2:37.53 | 227195 | 239022
18 | 53:06.73 | 3:41.35 | 239023 | 255632
19 | 56:48.33 | 3:41.62 | 255633 | 272269
20 | 60:30.20 | 1:44.28 | 272270 | 280097
21 | 62:14.48 | 1:10.70 | 280098 | 285417
22 | 63:25.43 | 1:14.42 | 285418 | 291009
23 | 64:40.10 | 1:52.40 | 291010 | 299449
24 | 66:32.50 | 1:30.55 | 299450 | 306254
25 | 68:03.30 | 2:12.35 | 306255 | 316189
26 | 70:15.65 | 3:29.73 | 316190 | 331937
Range status and errors
Selected range
Filename F:\CD1.wav
Peak level 97.6 %
Extraction speed 6.3 X
Range quality 100.0 %
Test CRC AD7476AD
Copy CRC AD7476AD
Copy OK
No errors occurred
AccurateRip summary
Track 1 accurately ripped (confidence 6) [264A0D8A] (AR v2)
Track 2 accurately ripped (confidence 6) [44B783A9] (AR v2)
Track 3 accurately ripped (confidence 6) [C6ADEE56] (AR v2)
Track 4 accurately ripped (confidence 6) [05BAC3CD] (AR v2)
Track 5 accurately ripped (confidence 6) [CDA16BEE] (AR v2)
Track 6 accurately ripped (confidence 6) [FF790C33] (AR v2)
Track 7 accurately ripped (confidence 6) [547BF048] (AR v2)
Track 8 accurately ripped (confidence 6) [1511AEC0] (AR v2)
Track 9 accurately ripped (confidence 6) [2577745D] (AR v2)
Track 10 accurately ripped (confidence 6) [EDE1AF0F] (AR v2)
Track 11 accurately ripped (confidence 6) [876400EC] (AR v2)
Track 12 accurately ripped (confidence 6) [4EF5664D] (AR v2)
Track 13 accurately ripped (confidence 6) [16979A24] (AR v2)
Track 14 accurately ripped (confidence 6) [D69E29B4] (AR v2)
Track 15 accurately ripped (confidence 6) [1A9A5395] (AR v2)
Track 16 accurately ripped (confidence 5) [4D89BB15] (AR v2)
Track 17 accurately ripped (confidence 5) [4050284A] (AR v2)
Track 18 accurately ripped (confidence 5) [C0C04980] (AR v2)
Track 19 accurately ripped (confidence 6) [9D0E58AE] (AR v2)
Track 20 accurately ripped (confidence 6) [FD748691] (AR v2)
Track 21 accurately ripped (confidence 6) [9382D441] (AR v2)
Track 22 accurately ripped (confidence 6) [CC40EB0D] (AR v2)
Track 23 accurately ripped (confidence 6) [A6EF25D2] (AR v2)
Track 24 accurately ripped (confidence 6) [E6120F39] (AR v2)
Track 25 accurately ripped (confidence 6) [741B701C] (AR v2)
Track 26 accurately ripped (confidence 6) [D860D670] (AR v2)
All tracks accurately ripped
End of status report
---- CUETools DB Plugin V2.1.4
[CTDB TOCID: jeq6Hwb0p78C5F4jymh74Do5UA0-] found
Submit result: jeq6Hwb0p78C5F4jymh74Do5UA0- has been confirmed
Track | CTDB Status
1 | (1/1) Accurately ripped
2 | (1/1) Accurately ripped
3 | (1/1) Accurately ripped
4 | (1/1) Accurately ripped
5 | (1/1) Accurately ripped
6 | (1/1) Accurately ripped
7 | (1/1) Accurately ripped
8 | (1/1) Accurately ripped
9 | (1/1) Accurately ripped
10 | (1/1) Accurately ripped
11 | (1/1) Accurately ripped
12 | (1/1) Accurately ripped
13 | (1/1) Accurately ripped
14 | (1/1) Accurately ripped
15 | (1/1) Accurately ripped
16 | (1/1) Accurately ripped
17 | (1/1) Accurately ripped
18 | (1/1) Accurately ripped
19 | (1/1) Accurately ripped
20 | (1/1) Accurately ripped
21 | (1/1) Accurately ripped
22 | (1/1) Accurately ripped
23 | (1/1) Accurately ripped
24 | (1/1) Accurately ripped
25 | (1/1) Accurately ripped
26 | (1/1) Accurately ripped
==== Log checksum 65BA30A91316D960717D7AABD6ED76432366EB27C3B07C2727E1863FB186472E ====

Disc 2

Exact Audio Copy V1.0 beta 4 from 7. December 2014
EAC extraction logfile from 20. October 2015, 5:11
Prey & Karl Engel / Hermann Prey - A life in song CD 2
Used drive : HL-DT-STDVDRAM GH24NS90 Adapter: 1 ID: 0
Read mode : Secure
Utilize accurate stream : Yes
Defeat audio cache : No
Make use of C2 pointers : Yes
Read offset correction : 6
Overread into Lead-In and Lead-Out : No
Fill up missing offset samples with silence : Yes
Delete leading and trailing silent blocks : No
Null samples used in CRC calculations : Yes
Used interface : Native Win32 interface for Win NT & 2000
Used output format : User Defined Encoder
Selected bitrate : 896 kBit/s
Quality : High
Add ID3 tag : No
Command line compressor : C:\Program Files (x86)\Exact Audio Copy\Flac\flac.exe
Additional command line options : -8 -V -T "ARTIST=%artist%" -T "TITLE=%title%" -T "ALBUM=%albumtitle%" -T "DATE=%year%" -T "TRACKNUMBER=%tracknr%" -T "GENRE=%genre%" -T "PERFORMER=%albuminterpret%" -T "COMPOSER=%composer%" %haslyrics%–tag-from-file=LYRICS="%lyricsfile%"%haslyrics% -T "ALBUMARTIST=%albumartist%" -T "DISCNUMBER=%cdnumber%" -T "TOTALDISCS=%totalcds%" -T "TOTALTRACKS=%numtracks%" -T "COMMENT=%comment%" %source% -o %dest%
TOC of the extracted CD
Track | Start | Length | Start sector | End sector
---------------------------------------------------------
1 | 0:00.00 | 5:09.67 | 0 | 23241
2 | 5:09.67 | 1:39.50 | 23242 | 30716
3 | 6:49.42 | 2:29.30 | 30717 | 41921
4 | 9:18.72 | 3:00.08 | 41922 | 55429
5 | 12:19.05 | 4:31.40 | 55430 | 75794
6 | 16:50.45 | 4:13.57 | 75795 | 94826
7 | 21:04.27 | 3:34.50 | 94827 | 110926
8 | 24:39.02 | 2:22.48 | 110927 | 121624
9 | 27:01.50 | 2:54.32 | 121625 | 134706
10 | 29:56.07 | 2:55.73 | 134707 | 147904
11 | 32:52.05 | 4:20.70 | 147905 | 167474
12 | 37:13.00 | 2:46.62 | 167475 | 179986
13 | 39:59.62 | 2:21.65 | 179987 | 190626
14 | 42:21.52 | 2:53.35 | 190627 | 203636
15 | 45:15.12 | 1:55.03 | 203637 | 212264
16 | 47:10.15 | 2:12.60 | 212265 | 222224
17 | 49:23.00 | 3:07.42 | 222225 | 236291
18 | 52:30.42 | 0:52.63 | 236292 | 240254
19 | 53:23.30 | 1:28.27 | 240255 | 246881
20 | 54:51.57 | 3:46.20 | 246882 | 263851
21 | 58:38.02 | 4:38.48 | 263852 | 284749
22 | 63:16.50 | 1:20.02 | 284750 | 290751
23 | 64:36.52 | 2:59.60 | 290752 | 304236
24 | 67:36.37 | 3:34.35 | 304237 | 320321
Range status and errors
Selected range
Filename F:\CD2.wav
Peak level 94.6 %
Extraction speed 6.0 X
Range quality 100.0 %
Test CRC 16BCB794
Copy CRC 16BCB794
Copy OK
No errors occurred
AccurateRip summary
Track 1 accurately ripped (confidence 6) [936E2A55] (AR v2)
Track 2 accurately ripped (confidence 6) [180AE561] (AR v2)
Track 3 accurately ripped (confidence 6) [C44135E4] (AR v2)
Track 4 accurately ripped (confidence 6) [E6DB0EB7] (AR v2)
Track 5 accurately ripped (confidence 6) [3727164C] (AR v2)
Track 6 accurately ripped (confidence 6) [770FBD94] (AR v2)
Track 7 accurately ripped (confidence 6) [B0B049F2] (AR v2)
Track 8 accurately ripped (confidence 6) [D117365D] (AR v2)
Track 9 accurately ripped (confidence 6) [C3119902] (AR v2)
Track 10 accurately ripped (confidence 6) [63072E04] (AR v2)
Track 11 accurately ripped (confidence 6) [262BB974] (AR v2)
Track 12 accurately ripped (confidence 6) [FDCC00BB] (AR v2)
Track 13 accurately ripped (confidence 6) [6DC1A668] (AR v2)
Track 14 accurately ripped (confidence 6) [E859BF4F] (AR v2)
Track 15 accurately ripped (confidence 6) [C2A50C1D] (AR v2)
Track 16 accurately ripped (confidence 6) [65C496ED] (AR v2)
Track 17 accurately ripped (confidence 6) [5BF30A7F] (AR v2)
Track 18 accurately ripped (confidence 6) [297764B9] (AR v2)
Track 19 accurately ripped (confidence 6) [13FCB059] (AR v2)
Track 20 accurately ripped (confidence 6) [7D05D4D0] (AR v2)
Track 21 accurately ripped (confidence 6) [ED8F9650] (AR v2)
Track 22 accurately ripped (confidence 6) [6BE6F268] (AR v2)
Track 23 accurately ripped (confidence 6) [C19BB582] (AR v2)
Track 24 accurately ripped (confidence 6) [7D77C602] (AR v2)
All tracks accurately ripped
End of status report
---- CUETools DB Plugin V2.1.4
[CTDB TOCID: R1hZh5GJcBdGvqKBoZcKKM_Uuj0-] found
Submit result: R1hZh5GJcBdGvqKBoZcKKM_Uuj0- has been confirmed
Track | CTDB Status
1 | (1/1) Accurately ripped
2 | (1/1) Accurately ripped
3 | (1/1) Accurately ripped
4 | (1/1) Accurately ripped
5 | (1/1) Accurately ripped
6 | (1/1) Accurately ripped
7 | (1/1) Accurately ripped
8 | (1/1) Accurately ripped
9 | (1/1) Accurately ripped
10 | (1/1) Accurately ripped
11 | (1/1) Accurately ripped
12 | (1/1) Accurately ripped
13 | (1/1) Accurately ripped
14 | (1/1) Accurately ripped
15 | (1/1) Accurately ripped
16 | (1/1) Accurately ripped
17 | (1/1) Accurately ripped
18 | (1/1) Accurately ripped
19 | (1/1) Accurately ripped
20 | (1/1) Accurately ripped
21 | (1/1) Accurately ripped
22 | (1/1) Accurately ripped
23 | (1/1) Accurately ripped
24 | (1/1) Accurately ripped
==== Log checksum 536277577040001353C19EB3B3C187F1375036F6D0D94F4884A505B9BA6A2526 ====

Disc 3

Exact Audio Copy V1.0 beta 4 from 7. December 2014
EAC extraction logfile from 20. October 2015, 5:37
Prey & Karl Engel / Hermann Prey - A life in song CD 3
Used drive : HL-DT-STDVDRAM GH24NS90 Adapter: 1 ID: 0
Read mode : Secure
Utilize accurate stream : Yes
Defeat audio cache : No
Make use of C2 pointers : Yes
Read offset correction : 6
Overread into Lead-In and Lead-Out : No
Fill up missing offset samples with silence : Yes
Delete leading and trailing silent blocks : No
Null samples used in CRC calculations : Yes
Used interface : Native Win32 interface for Win NT & 2000
Used output format : User Defined Encoder
Selected bitrate : 896 kBit/s
Quality : High
Add ID3 tag : No
Command line compressor : C:\Program Files (x86)\Exact Audio Copy\Flac\flac.exe
Additional command line options : -8 -V -T "ARTIST=%artist%" -T "TITLE=%title%" -T "ALBUM=%albumtitle%" -T "DATE=%year%" -T "TRACKNUMBER=%tracknr%" -T "GENRE=%genre%" -T "PERFORMER=%albuminterpret%" -T "COMPOSER=%composer%" %haslyrics%–tag-from-file=LYRICS="%lyricsfile%"%haslyrics% -T "ALBUMARTIST=%albumartist%" -T "DISCNUMBER=%cdnumber%" -T "TOTALDISCS=%totalcds%" -T "TOTALTRACKS=%numtracks%" -T "COMMENT=%comment%" %source% -o %dest%
TOC of the extracted CD
Track | Start | Length | Start sector | End sector
---------------------------------------------------------
1 | 0:00.00 | 1:42.20 | 0 | 7669
2 | 1:42.20 | 0:55.45 | 7670 | 11839
3 | 2:37.65 | 0:35.05 | 11840 | 14469
4 | 3:12.70 | 1:37.52 | 14470 | 21796
5 | 4:50.47 | 0:55.20 | 21797 | 25941
6 | 5:45.67 | 2:19.33 | 25942 | 36399
7 | 8:05.25 | 1:50.05 | 36400 | 44654
8 | 9:55.30 | 1:13.52 | 44655 | 50181
9 | 11:09.07 | 1:21.48 | 50182 | 56304
10 | 12:30.55 | 2:01.22 | 56305 | 65401
11 | 14:32.02 | 1:07.03 | 65402 | 70429
12 | 15:39.05 | 2:24.47 | 70430 | 81276
13 | 18:03.52 | 2:31.53 | 81277 | 92654
14 | 20:35.30 | 1:27.12 | 92655 | 99191
15 | 22:02.42 | 2:28.70 | 99192 | 110361
16 | 24:31.37 | 4:43.33 | 110362 | 131619
17 | 29:14.70 | 1:32.42 | 131620 | 138561
18 | 30:47.37 | 6:38.33 | 138562 | 168444
19 | 37:25.70 | 2:46.40 | 168445 | 180934
20 | 40:12.35 | 2:20.50 | 180935 | 191484
21 | 42:33.10 | 2:30.65 | 191485 | 202799
22 | 45:04.00 | 4:13.60 | 202800 | 221834
23 | 49:17.60 | 1:13.70 | 221835 | 227379
24 | 50:31.55 | 3:51.40 | 227380 | 244744
25 | 54:23.20 | 1:07.72 | 244745 | 249841
26 | 55:31.17 | 3:27.15 | 249842 | 265381
27 | 58:58.32 | 2:16.68 | 265382 | 275649
28 | 61:15.25 | 2:21.35 | 275650 | 286259
Range status and errors
Selected range
Filename F:\CD3.wav
Peak level 96.7 %
Extraction speed 5.8 X
Range quality 100.0 %
Test CRC DBA78475
Copy CRC DBA78475
Copy OK
No errors occurred
AccurateRip summary
Track 1 accurately ripped (confidence 5) [76D7579F] (AR v2)
Track 2 accurately ripped (confidence 5) [731DDF32] (AR v2)
Track 3 accurately ripped (confidence 5) [804B0F55] (AR v2)
Track 4 accurately ripped (confidence 5) [1D3CC691] (AR v2)
Track 5 accurately ripped (confidence 5) [24840A8A] (AR v2)
Track 6 accurately ripped (confidence 5) [0979EEEE] (AR v2)
Track 7 accurately ripped (confidence 5) [C38CDD56] (AR v2)
Track 8 accurately ripped (confidence 5) [2DB3CD8C] (AR v2)
Track 9 accurately ripped (confidence 5) [BEF4CFD8] (AR v2)
Track 10 accurately ripped (confidence 5) [267CE717] (AR v2)
Track 11 accurately ripped (confidence 5) [C427A74B] (AR v2)
Track 12 accurately ripped (confidence 5) [0D06BBE5] (AR v2)
Track 13 accurately ripped (confidence 5) [CC165960] (AR v2)
Track 14 accurately ripped (confidence 5) [246E0569] (AR v2)
Track 15 accurately ripped (confidence 5) [6C0D0FFF] (AR v2)
Track 16 accurately ripped (confidence 5) [F9B2D6BE] (AR v2)
Track 17 accurately ripped (confidence 5) [F4A8AAF1] (AR v2)
Track 18 accurately ripped (confidence 5) [F894327F] (AR v2)
Track 19 accurately ripped (confidence 5) [6AB61FEB] (AR v2)
Track 20 accurately ripped (confidence 5) [CAFBE320] (AR v2)
Track 21 accurately ripped (confidence 5) [24941C02] (AR v2)
Track 22 accurately ripped (confidence 5) [0CBE576C] (AR v2)
Track 23 accurately ripped (confidence 5) [E27A2F7F] (AR v2)
Track 24 accurately ripped (confidence 5) [D30E6CEB] (AR v2)
Track 25 accurately ripped (confidence 5) [09F70CDC] (AR v2)
Track 26 accurately ripped (confidence 5) [AD950E2F] (AR v2)
Track 27 accurately ripped (confidence 5) [DE8CA2D1] (AR v2)
Track 28 accurately ripped (confidence 5) [801C2129] (AR v2)
All tracks accurately ripped
End of status report
---- CUETools DB Plugin V2.1.4
[CTDB TOCID: 4Xw0FXK.9.kyMxuRQhB98i0dHVE-] database access error: 원격 이름을 확인할 수 없습니다.: 'db.cuetools.net'
==== Log checksum F3CA3653960906806B3E406053F7914900C1B291BB24719E026D42ED88938696 ====

Disc 4

Exact Audio Copy V1.0 beta 4 from 7. December 2014
EAC extraction logfile from 20. October 2015, 7:03
Unknown Artist / Unknown Title
Used drive : HL-DT-STDVDRAM GH24NS90 Adapter: 1 ID: 0
Read mode : Secure
Utilize accurate stream : Yes
Defeat audio cache : No
Make use of C2 pointers : Yes
Read offset correction : 6
Overread into Lead-In and Lead-Out : No
Fill up missing offset samples with silence : Yes
Delete leading and trailing silent blocks : No
Null samples used in CRC calculations : Yes
Used interface : Native Win32 interface for Win NT & 2000
Used output format : User Defined Encoder
Selected bitrate : 896 kBit/s
Quality : High
Add ID3 tag : No
Command line compressor : C:\Program Files (x86)\Exact Audio Copy\Flac\flac.exe
Additional command line options : -8 -V -T "ARTIST=%artist%" -T "TITLE=%title%" -T "ALBUM=%albumtitle%" -T "DATE=%year%" -T "TRACKNUMBER=%tracknr%" -T "GENRE=%genre%" -T "PERFORMER=%albuminterpret%" -T "COMPOSER=%composer%" %haslyrics%–tag-from-file=LYRICS="%lyricsfile%"%haslyrics% -T "ALBUMARTIST=%albumartist%" -T "DISCNUMBER=%cdnumber%" -T "TOTALDISCS=%totalcds%" -T "TOTALTRACKS=%numtracks%" -T "COMMENT=%comment%" %source% -o %dest%
TOC of the extracted CD
Track | Start | Length | Start sector | End sector
---------------------------------------------------------
1 | 0:00.00 | 2:04.63 | 0 | 9362
2 | 2:04.63 | 1:55.05 | 9363 | 17992
3 | 3:59.68 | 1:57.62 | 17993 | 26829
4 | 5:57.55 | 1:32.18 | 26830 | 33747
5 | 7:29.73 | 3:29.35 | 33748 | 49457
6 | 10:59.33 | 1:18.40 | 49458 | 55347
7 | 12:17.73 | 2:51.50 | 55348 | 68222
8 | 15:09.48 | 1:36.55 | 68223 | 75477
9 | 16:46.28 | 2:33.65 | 75478 | 87017
10 | 19:20.18 | 3:02.47 | 87018 | 100714
11 | 22:22.65 | 1:26.15 | 100715 | 107179
12 | 23:49.05 | 1:19.62 | 107180 | 113166
13 | 25:08.67 | 2:00.43 | 113167 | 122209
14 | 27:09.35 | 2:29.05 | 122210 | 133389
15 | 29:38.40 | 2:21.53 | 133390 | 144017
16 | 32:00.18 | 3:19.02 | 144018 | 158944
17 | 35:19.20 | 1:57.58 | 158945 | 167777
18 | 37:17.03 | 3:12.47 | 167778 | 182224
19 | 40:29.50 | 1:37.25 | 182225 | 189524
20 | 42:07.00 | 2:12.35 | 189525 | 199459
21 | 44:19.35 | 1:48.68 | 199460 | 207627
22 | 46:08.28 | 3:35.70 | 207628 | 223822
23 | 49:44.23 | 3:46.00 | 223823 | 240772
24 | 53:30.23 | 2:47.20 | 240773 | 253317
25 | 56:17.43 | 2:50.05 | 253318 | 266072
26 | 59:07.48 | 1:29.20 | 266073 | 272767
27 | 60:36.68 | 0:56.70 | 272768 | 277037
28 | 61:33.63 | 1:26.72 | 277038 | 283559
29 | 63:00.60 | 1:08.58 | 283560 | 288717
30 | 64:09.43 | 3:45.25 | 288718 | 305617
31 | 67:54.68 | 1:58.25 | 305618 | 314492
32 | 69:53.18 | 1:39.61 | 314493 | 321978
Range status and errors
Selected range
Filename F:\CD4.wav
Peak level 98.8 %
Extraction speed 6.1 X
Range quality 100.0 %
Test CRC CC0FB330
Copy CRC CC0FB330
Copy OK
No errors occurred
AccurateRip summary
Track 1 accurately ripped (confidence 5) [826EA34C] (AR v2)
Track 2 accurately ripped (confidence 5) [AD3ACEE7] (AR v2)
Track 3 accurately ripped (confidence 5) [9682B8D6] (AR v2)
Track 4 accurately ripped (confidence 5) [BE02E24F] (AR v2)
Track 5 accurately ripped (confidence 5) [476B0616] (AR v2)
Track 6 accurately ripped (confidence 5) [AAC051D9] (AR v2)
Track 7 accurately ripped (confidence 5) [1599DB41] (AR v2)
Track 8 accurately ripped (confidence 5) [C980C92E] (AR v2)
Track 9 accurately ripped (confidence 5) [6150F1DC] (AR v2)
Track 10 accurately ripped (confidence 5) [3E703103] (AR v2)
Track 11 accurately ripped (confidence 5) [5EB6D068] (AR v2)
Track 12 accurately ripped (confidence 5) [814F7B8B] (AR v2)
Track 13 accurately ripped (confidence 5) [CB54D4B3] (AR v2)
Track 14 accurately ripped (confidence 5) [62FE6967] (AR v2)
Track 15 accurately ripped (confidence 5) [2E800E68] (AR v2)
Track 16 accurately ripped (confidence 5) [7543E983] (AR v2)
Track 17 accurately ripped (confidence 5) [AD4C2ACD] (AR v2)
Track 18 accurately ripped (confidence 5) [56BCB8FB] (AR v2)
Track 19 accurately ripped (confidence 5) [192ED999] (AR v2)
Track 20 accurately ripped (confidence 5) [BDE880C8] (AR v2)
Track 21 accurately ripped (confidence 5) [13F5AD7A] (AR v2)
Track 22 accurately ripped (confidence 5) [23DD4E61] (AR v2)
Track 23 accurately ripped (confidence 5) [8FC4D7E9] (AR v2)
Track 24 accurately ripped (confidence 5) [C3EFA0A3] (AR v2)
Track 25 accurately ripped (confidence 5) [D9FECB1F] (AR v2)
Track 26 accurately ripped (confidence 5) [FF5B6D4D] (AR v2)
Track 27 accurately ripped (confidence 5) [75B146B1] (AR v2)
Track 28 accurately ripped (confidence 5) [87EE347F] (AR v2)
Track 29 accurately ripped (confidence 5) [EA7F9710] (AR v2)
Track 30 accurately ripped (confidence 5) [718D5643] (AR v2)
Track 31 accurately ripped (confidence 5) [FEAFF48E] (AR v2)
Track 32 accurately ripped (confidence 4) [64D64EA4] (AR v2)
All tracks accurately ripped
End of status report
---- CUETools DB Plugin V2.1.4
[CTDB TOCID: FFNZ9PzsCQW2aerVHV4Gm7u5XyA-] found
Submit result: FFNZ9PzsCQW2aerVHV4Gm7u5XyA- has been confirmed
Track | CTDB Status
1 | (1/1) Accurately ripped
2 | (1/1) Accurately ripped
3 | (1/1) Accurately ripped
4 | (1/1) Accurately ripped
5 | (1/1) Accurately ripped
6 | (1/1) Accurately ripped
7 | (1/1) Accurately ripped
8 | (1/1) Accurately ripped
9 | (1/1) Accurately ripped
10 | (1/1) Accurately ripped
11 | (1/1) Accurately ripped
12 | (1/1) Accurately ripped
13 | (1/1) Accurately ripped
14 | (1/1) Accurately ripped
15 | (1/1) Accurately ripped
16 | (1/1) Accurately ripped
17 | (1/1) Accurately ripped
18 | (1/1) Accurately ripped
19 | (1/1) Accurately ripped
20 | (1/1) Accurately ripped
21 | (1/1) Accurately ripped
22 | (1/1) Accurately ripped
23 | (1/1) Accurately ripped
24 | (1/1) Accurately ripped
25 | (1/1) Accurately ripped
26 | (1/1) Accurately ripped
27 | (1/1) Accurately ripped
28 | (1/1) Accurately ripped
29 | (1/1) Accurately ripped
30 | (1/1) Accurately ripped
31 | (1/1) Accurately ripped
32 | (1/1) Accurately ripped
==== Log checksum 8B63D14EFC645B8D68BD51D8DF05C87B2CBE3CA0CE787A0B90DC36C9C66D9515 ====

Disc 5

Exact Audio Copy V1.0 beta 4 from 7. December 2014
EAC extraction logfile from 20. October 2015, 7:23
Unknown Artist / Unknown Title
Used drive : HL-DT-STDVDRAM GH24NS90 Adapter: 1 ID: 0
Read mode : Secure
Utilize accurate stream : Yes
Defeat audio cache : No
Make use of C2 pointers : Yes
Read offset correction : 6
Overread into Lead-In and Lead-Out : No
Fill up missing offset samples with silence : Yes
Delete leading and trailing silent blocks : No
Null samples used in CRC calculations : Yes
Used interface : Native Win32 interface for Win NT & 2000
Used output format : User Defined Encoder
Selected bitrate : 896 kBit/s
Quality : High
Add ID3 tag : No
Command line compressor : C:\Program Files (x86)\Exact Audio Copy\Flac\flac.exe
Additional command line options : -8 -V -T "ARTIST=%artist%" -T "TITLE=%title%" -T "ALBUM=%albumtitle%" -T "DATE=%year%" -T "TRACKNUMBER=%tracknr%" -T "GENRE=%genre%" -T "PERFORMER=%albuminterpret%" -T "COMPOSER=%composer%" %haslyrics%–tag-from-file=LYRICS="%lyricsfile%"%haslyrics% -T "ALBUMARTIST=%albumartist%" -T "DISCNUMBER=%cdnumber%" -T "TOTALDISCS=%totalcds%" -T "TOTALTRACKS=%numtracks%" -T "COMMENT=%comment%" %source% -o %dest%
TOC of the extracted CD
Track | Start | Length | Start sector | End sector
---------------------------------------------------------
1 | 0:00.00 | 6:45.11 | 0 | 30385
2 | 6:45.11 | 0:48.11 | 30386 | 33996
3 | 7:33.22 | 2:07.66 | 33997 | 43587
4 | 9:41.13 | 7:43.02 | 43588 | 78314
5 | 17:24.15 | 3:26.63 | 78315 | 93827
6 | 20:51.03 | 2:13.07 | 93828 | 103809
7 | 23:04.10 | 1:56.14 | 103810 | 112523
8 | 25:00.24 | 2:27.32 | 112524 | 123580
9 | 27:27.56 | 0:39.65 | 123581 | 126570
10 | 28:07.46 | 5:28.42 | 126571 | 151212
11 | 33:36.13 | 1:51.73 | 151213 | 159610
12 | 35:28.11 | 2:47.00 | 159611 | 172135
13 | 38:15.11 | 1:58.60 | 172136 | 181045
14 | 40:13.71 | 2:57.45 | 181046 | 194365
15 | 43:11.41 | 2:49.65 | 194366 | 207105
16 | 46:01.31 | 6:08.52 | 207106 | 234757
17 | 52:10.08 | 2:01.25 | 234758 | 243857
18 | 54:11.33 | 1:51.00 | 243858 | 252182
19 | 56:02.33 | 5:00.03 | 252183 | 274685
20 | 61:02.36 | 4:58.07 | 274686 | 297042
21 | 66:00.43 | 4:31.18 | 297043 | 317385
22 | 70:31.61 | 4:53.67 | 317386 | 339427
Range status and errors
Selected range
Filename F:\CD5.wav
Peak level 96.1 %
Extraction speed 6.4 X
Range quality 99.9 %
Test CRC AF7A1F7C
Copy CRC AF7A1F7C
Copy OK
No errors occurred
AccurateRip summary
Track 1 accurately ripped (confidence 5) [4340741D] (AR v2)
Track 2 accurately ripped (confidence 5) [510501B3] (AR v2)
Track 3 accurately ripped (confidence 5) [72BE1636] (AR v2)
Track 4 accurately ripped (confidence 5) [21D3FBAF] (AR v2)
Track 5 accurately ripped (confidence 5) [B4C592CE] (AR v2)
Track 6 accurately ripped (confidence 5) [5508C2D9] (AR v2)
Track 7 accurately ripped (confidence 5) [8D9646E2] (AR v2)
Track 8 accurately ripped (confidence 5) [66DD1A8E] (AR v2)
Track 9 accurately ripped (confidence 5) [F18AB746] (AR v2)
Track 10 accurately ripped (confidence 5) [25F0DC00] (AR v2)
Track 11 accurately ripped (confidence 5) [2530F6D1] (AR v2)
Track 12 accurately ripped (confidence 5) [4B205643] (AR v2)
Track 13 accurately ripped (confidence 5) [EB1C8E3D] (AR v2)
Track 14 accurately ripped (confidence 5) [FD4CC228] (AR v2)
Track 15 accurately ripped (confidence 5) [891FBA56] (AR v2)
Track 16 accurately ripped (confidence 5) [EF0596C7] (AR v2)
Track 17 accurately ripped (confidence 5) [76E879DF] (AR v2)
Track 18 accurately ripped (confidence 5) [71B40FAC] (AR v2)
Track 19 accurately ripped (confidence 5) [63CE73D7] (AR v2)
Track 20 accurately ripped (confidence 5) [B42AD649] (AR v2)
Track 21 accurately ripped (confidence 5) [2BBF59B9] (AR v2)
Track 22 accurately ripped (confidence 5) [EDC4CF6F] (AR v2)
All tracks accurately ripped
End of status report
---- CUETools DB Plugin V2.1.4
[CTDB TOCID: Hn5jSwQAoe5i_PEoVzxuHikTE6U-] found
Submit result: Hn5jSwQAoe5i_PEoVzxuHikTE6U- has been confirmed
Track | CTDB Status
1 | (1/1) Accurately ripped
2 | (1/1) Accurately ripped
3 | (1/1) Accurately ripped
4 | (1/1) Accurately ripped
5 | (1/1) Accurately ripped
6 | (1/1) Accurately ripped
7 | (1/1) Accurately ripped
8 | (1/1) Accurately ripped
9 | (1/1) Accurately ripped
10 | (1/1) Accurately ripped
11 | (1/1) Accurately ripped
12 | (1/1) Accurately ripped
13 | (1/1) Accurately ripped
14 | (1/1) Accurately ripped
15 | (1/1) Accurately ripped
16 | (1/1) Accurately ripped
17 | (1/1) Accurately ripped
18 | (1/1) Accurately ripped
19 | (1/1) Accurately ripped
20 | (1/1) Accurately ripped
21 | (1/1) Accurately ripped
22 | (1/1) Accurately ripped
==== Log checksum 805A7D6CBC7660339B2DFC9ED8F4193EC799AEAADD59BD1929DB3362A8EBEBCD ====

Disc 6

Exact Audio Copy V1.0 beta 4 from 7. December 2014
EAC extraction logfile from 20. October 2015, 7:42
Unknown Artist / Unknown Title
Used drive : HL-DT-STDVDRAM GH24NS90 Adapter: 1 ID: 0
Read mode : Secure
Utilize accurate stream : Yes
Defeat audio cache : No
Make use of C2 pointers : Yes
Read offset correction : 6
Overread into Lead-In and Lead-Out : No
Fill up missing offset samples with silence : Yes
Delete leading and trailing silent blocks : No
Null samples used in CRC calculations : Yes
Used interface : Native Win32 interface for Win NT & 2000
Used output format : User Defined Encoder
Selected bitrate : 896 kBit/s
Quality : High
Add ID3 tag : No
Command line compressor : C:\Program Files (x86)\Exact Audio Copy\Flac\flac.exe
Additional command line options : -8 -V -T "ARTIST=%artist%" -T "TITLE=%title%" -T "ALBUM=%albumtitle%" -T "DATE=%year%" -T "TRACKNUMBER=%tracknr%" -T "GENRE=%genre%" -T "PERFORMER=%albuminterpret%" -T "COMPOSER=%composer%" %haslyrics%–tag-from-file=LYRICS="%lyricsfile%"%haslyrics% -T "ALBUMARTIST=%albumartist%" -T "DISCNUMBER=%cdnumber%" -T "TOTALDISCS=%totalcds%" -T "TOTALTRACKS=%numtracks%" -T "COMMENT=%comment%" %source% -o %dest%
TOC of the extracted CD
Track | Start | Length | Start sector | End sector
---------------------------------------------------------
1 | 0:00.00 | 6:06.02 | 0 | 27451
2 | 6:06.02 | 2:37.10 | 27452 | 39236
3 | 8:43.12 | 5:48.08 | 39237 | 65344
4 | 14:31.20 | 2:28.10 | 65345 | 76454
5 | 16:59.30 | 1:26.47 | 76455 | 82951
6 | 18:26.02 | 0:47.30 | 82952 | 86506
7 | 19:13.32 | 1:33.03 | 86507 | 93484
8 | 20:46.35 | 3:25.40 | 93485 | 108899
9 | 24:12.00 | 1:50.42 | 108900 | 117191
10 | 26:02.42 | 1:24.35 | 117192 | 123526
11 | 27:27.02 | 1:55.25 | 123527 | 132176
12 | 29:22.27 | 1:27.25 | 132177 | 138726
13 | 30:49.52 | 3:07.23 | 138727 | 152774
14 | 33:57.00 | 1:38.12 | 152775 | 160136
15 | 35:35.12 | 2:43.55 | 160137 | 172416
16 | 38:18.67 | 2:34.48 | 172417 | 184014
17 | 40:53.40 | 2:24.42 | 184015 | 194856
18 | 43:18.07 | 2:12.20 | 194857 | 204776
19 | 45:30.27 | 2:28.15 | 204777 | 215891
20 | 47:58.42 | 1:24.10 | 215892 | 222201
21 | 49:22.52 | 2:15.38 | 222202 | 232364
22 | 51:38.15 | 2:32.20 | 232365 | 243784
23 | 54:10.35 | 3:00.10 | 243785 | 257294
24 | 57:10.45 | 3:40.50 | 257295 | 273844
25 | 60:51.20 | 1:44.35 | 273845 | 281679
26 | 62:35.55 | 1:51.35 | 281680 | 290039
27 | 64:27.15 | 3:03.25 | 290040 | 303789
28 | 67:30.40 | 1:50.00 | 303790 | 312039
29 | 69:20.40 | 2:27.12 | 312040 | 323076
30 | 71:47.52 | 1:19.70 | 323077 | 329071
31 | 73:07.47 | 2:38.03 | 329072 | 340924
32 | 75:45.50 | 3:44.37 | 340925 | 357761
Range status and errors
Selected range
Filename F:\CD6.wav
Peak level 89.1 %
Extraction speed 6.8 X
Range quality 100.0 %
Test CRC 2E6DDC1B
Copy CRC 2E6DDC1B
Copy OK
No errors occurred
AccurateRip summary
Track 1 accurately ripped (confidence 5) [6140B7B7] (AR v2)
Track 2 accurately ripped (confidence 5) [78D0F7A1] (AR v2)
Track 3 accurately ripped (confidence 5) [57AC193D] (AR v2)
Track 4 accurately ripped (confidence 5) [6CC720BC] (AR v2)
Track 5 accurately ripped (confidence 5) [D524C57D] (AR v2)
Track 6 accurately ripped (confidence 5) [F6F7D97D] (AR v2)
Track 7 accurately ripped (confidence 5) [D5DFF290] (AR v2)
Track 8 accurately ripped (confidence 5) [64123D65] (AR v2)
Track 9 accurately ripped (confidence 5) [B67A8C95] (AR v2)
Track 10 accurately ripped (confidence 5) [0980F087] (AR v2)
Track 11 accurately ripped (confidence 5) [63B98B70] (AR v2)
Track 12 accurately ripped (confidence 5) [0A268DFB] (AR v2)
Track 13 accurately ripped (confidence 5) [94490DD7] (AR v2)
Track 14 accurately ripped (confidence 5) [666866EC] (AR v2)
Track 15 accurately ripped (confidence 5) [337F5ADD] (AR v2)
Track 16 accurately ripped (confidence 5) [EED4944A] (AR v2)
Track 17 accurately ripped (confidence 5) [7FE920B1] (AR v2)
Track 18 accurately ripped (confidence 5) [9204FB0E] (AR v2)
Track 19 accurately ripped (confidence 5) [97A2DAC2] (AR v2)
Track 20 accurately ripped (confidence 5) [CD7E1EB4] (AR v2)
Track 21 accurately ripped (confidence 5) [845D1581] (AR v2)
Track 22 accurately ripped (confidence 5) [935B62CE] (AR v2)
Track 23 accurately ripped (confidence 5) [9B7D6472] (AR v2)
Track 24 accurately ripped (confidence 5) [A8A370AB] (AR v2)
Track 25 accurately ripped (confidence 5) [CA1E1D05] (AR v2)
Track 26 accurately ripped (confidence 5) [E4342C49] (AR v2)
Track 27 accurately ripped (confidence 5) [20D6A4DD] (AR v2)
Track 28 accurately ripped (confidence 5) [D9DAB91E] (AR v2)
Track 29 accurately ripped (confidence 5) [5A4A4843] (AR v2)
Track 30 accurately ripped (confidence 5) [69E2E18D] (AR v2)
Track 31 accurately ripped (confidence 5) [D400ED02] (AR v2)
Track 32 accurately ripped (confidence 5) [97174083] (AR v2)
All tracks accurately ripped
End of status report
---- CUETools DB Plugin V2.1.4
[CTDB TOCID: qKAIGhffVWi4fODfoijk6NQ06nQ-] found
Submit result: qKAIGhffVWi4fODfoijk6NQ06nQ- has been confirmed
Track | CTDB Status
1 | (1/1) Accurately ripped
2 | (1/1) Accurately ripped
3 | (1/1) Accurately ripped
4 | (1/1) Accurately ripped
5 | (1/1) Accurately ripped
6 | (1/1) Accurately ripped
7 | (1/1) Accurately ripped
8 | (1/1) Accurately ripped
9 | (1/1) Accurately ripped
10 | (1/1) Accurately ripped
11 | (1/1) Accurately ripped
12 | (1/1) Accurately ripped
13 | (1/1) Accurately ripped
14 | (1/1) Accurately ripped
15 | (1/1) Accurately ripped
16 | (1/1) Accurately ripped
17 | (1/1) Accurately ripped
18 | (1/1) Accurately ripped
19 | (1/1) Accurately ripped
20 | (1/1) Accurately ripped
21 | (1/1) Accurately ripped
22 | (1/1) Accurately ripped
23 | (1/1) Accurately ripped
24 | (1/1) Accurately ripped
25 | (1/1) Accurately ripped
26 | (1/1) Accurately ripped
27 | (1/1) Accurately ripped
28 | (1/1) Accurately ripped
29 | (1/1) Accurately ripped
30 | (1/1) Accurately ripped
31 | (1/1) Accurately ripped
32 | (1/1) Accurately ripped
==== Log checksum 82186D62EA53A639A8A2EDD70A8CF7A0329C6255C3782E3B0ACEBAE38555E7D4 ====

Disc 7

Exact Audio Copy V1.0 beta 4 from 7. December 2014
EAC extraction logfile from 20. October 2015, 8:03
Unknown Artist / Unknown Title
Used drive : HL-DT-STDVDRAM GH24NS90 Adapter: 1 ID: 0
Read mode : Secure
Utilize accurate stream : Yes
Defeat audio cache : No
Make use of C2 pointers : Yes
Read offset correction : 6
Overread into Lead-In and Lead-Out : No
Fill up missing offset samples with silence : Yes
Delete leading and trailing silent blocks : No
Null samples used in CRC calculations : Yes
Used interface : Native Win32 interface for Win NT & 2000
Used output format : User Defined Encoder
Selected bitrate : 896 kBit/s
Quality : High
Add ID3 tag : No
Command line compressor : C:\Program Files (x86)\Exact Audio Copy\Flac\flac.exe
Additional command line options : -8 -V -T "ARTIST=%artist%" -T "TITLE=%title%" -T "ALBUM=%albumtitle%" -T "DATE=%year%" -T "TRACKNUMBER=%tracknr%" -T "GENRE=%genre%" -T "PERFORMER=%albuminterpret%" -T "COMPOSER=%composer%" %haslyrics%–tag-from-file=LYRICS="%lyricsfile%"%haslyrics% -T "ALBUMARTIST=%albumartist%" -T "DISCNUMBER=%cdnumber%" -T "TOTALDISCS=%totalcds%" -T "TOTALTRACKS=%numtracks%" -T "COMMENT=%comment%" %source% -o %dest%
TOC of the extracted CD
Track | Start | Length | Start sector | End sector
---------------------------------------------------------
1 | 0:00.00 | 5:50.53 | 0 | 26302
2 | 5:50.53 | 3:21.47 | 26303 | 41424
3 | 9:12.25 | 1:56.21 | 41425 | 50145
4 | 11:08.46 | 5:05.18 | 50146 | 73038
5 | 16:13.64 | 4:58.40 | 73039 | 95428
6 | 21:12.29 | 10:09.44 | 95429 | 141147
7 | 31:21.73 | 4:43.17 | 141148 | 162389
8 | 36:05.15 | 2:58.01 | 162390 | 175740
9 | 39:03.16 | 3:16.61 | 175741 | 190501
10 | 42:20.02 | 2:59.68 | 190502 | 203994
11 | 45:19.70 | 8:57.44 | 203995 | 244313
12 | 54:17.39 | 1:34.12 | 244314 | 251375
13 | 55:51.51 | 11:03.57 | 251376 | 301157
14 | 66:55.33 | 0:55.09 | 301158 | 305291
15 | 67:50.42 | 4:25.06 | 305292 | 325172
Range status and errors
Selected range
Filename F:\CD7.wav
Peak level 98.8 %
Extraction speed 6.1 X
Range quality 100.0 %
Test CRC 4A42F335
Copy CRC 4A42F335
Copy OK
No errors occurred
AccurateRip summary
Track 1 accurately ripped (confidence 5) [E7D3F57F] (AR v2)
Track 2 accurately ripped (confidence 5) [BA322321] (AR v2)
Track 3 accurately ripped (confidence 5) [9B755B0C] (AR v2)
Track 4 accurately ripped (confidence 5) [8B715005] (AR v2)
Track 5 accurately ripped (confidence 5) [92F49109] (AR v2)
Track 6 accurately ripped (confidence 3) [ADA92F9D] (AR v2)
Track 7 accurately ripped (confidence 5) [D4C1792A] (AR v2)
Track 8 accurately ripped (confidence 5) [FF7A5D08] (AR v2)
Track 9 accurately ripped (confidence 5) [DFC91B74] (AR v2)
Track 10 accurately ripped (confidence 5) [B717885A] (AR v2)
Track 11 accurately ripped (confidence 5) [2EBAEE91] (AR v2)
Track 12 accurately ripped (confidence 5) [5B1332B7] (AR v2)
Track 13 accurately ripped (confidence 4) [7CB47B6D] (AR v2)
Track 14 accurately ripped (confidence 4) [51136688] (AR v2)
Track 15 accurately ripped (confidence 4) [7B2B09EB] (AR v2)
All tracks accurately ripped
End of status report
---- CUETools DB Plugin V2.1.4
[CTDB TOCID: 14_DwxN2j7cMBohb1x1HAQ1rLW4-] found
Submit result: 14_DwxN2j7cMBohb1x1HAQ1rLW4- has been confirmed
Track | CTDB Status
1 | (1/1) Accurately ripped
2 | (1/1) Accurately ripped
3 | (1/1) Accurately ripped
4 | (1/1) Accurately ripped
5 | (1/1) Accurately ripped
6 | (1/1) Accurately ripped
7 | (1/1) Accurately ripped
8 | (1/1) Accurately ripped
9 | (1/1) Accurately ripped
10 | (1/1) Accurately ripped
11 | (1/1) Accurately ripped
12 | (1/1) Accurately ripped
13 | (1/1) Accurately ripped
14 | (1/1) Accurately ripped
15 | (1/1) Accurately ripped
==== Log checksum ACF2EABDF5455E18007EAF4412F96FB7BE89B7F76D48106612367D933B7472B7 ====

Disc 8

Exact Audio Copy V1.0 beta 4 from 7. December 2014
EAC extraction logfile from 20. October 2015, 8:20
Hermann Prey & / Hermann Prey - A life in song CD 8
Used drive : HL-DT-STDVDRAM GH24NS90 Adapter: 1 ID: 0
Read mode : Secure
Utilize accurate stream : Yes
Defeat audio cache : No
Make use of C2 pointers : Yes
Read offset correction : 6
Overread into Lead-In and Lead-Out : No
Fill up missing offset samples with silence : Yes
Delete leading and trailing silent blocks : No
Null samples used in CRC calculations : Yes
Used interface : Native Win32 interface for Win NT & 2000
Used output format : User Defined Encoder
Selected bitrate : 896 kBit/s
Quality : High
Add ID3 tag : No
Command line compressor : C:\Program Files (x86)\Exact Audio Copy\Flac\flac.exe
Additional command line options : -8 -V -T "ARTIST=%artist%" -T "TITLE=%title%" -T "ALBUM=%albumtitle%" -T "DATE=%year%" -T "TRACKNUMBER=%tracknr%" -T "GENRE=%genre%" -T "PERFORMER=%albuminterpret%" -T "COMPOSER=%composer%" %haslyrics%–tag-from-file=LYRICS="%lyricsfile%"%haslyrics% -T "ALBUMARTIST=%albumartist%" -T "DISCNUMBER=%cdnumber%" -T "TOTALDISCS=%totalcds%" -T "TOTALTRACKS=%numtracks%" -T "COMMENT=%comment%" %source% -o %dest%
TOC of the extracted CD
Track | Start | Length | Start sector | End sector
---------------------------------------------------------
1 | 0:00.00 | 2:05.56 | 0 | 9430
2 | 2:05.56 | 4:16.55 | 9431 | 28685
3 | 6:22.36 | 4:18.28 | 28686 | 48063
4 | 10:40.64 | 2:59.73 | 48064 | 61561
5 | 13:40.62 | 1:23.33 | 61562 | 67819
6 | 15:04.20 | 1:55.43 | 67820 | 76487
7 | 16:59.63 | 2:39.23 | 76488 | 88435
8 | 19:39.11 | 3:51.56 | 88436 | 105816
9 | 23:30.67 | 4:57.39 | 105817 | 128130
10 | 28:28.31 | 2:32.10 | 128131 | 139540
11 | 31:00.41 | 4:43.09 | 139541 | 160774
12 | 35:43.50 | 7:27.27 | 160775 | 194326
13 | 43:11.02 | 4:42.15 | 194327 | 215491
14 | 47:53.17 | 2:45.52 | 215492 | 227918
15 | 50:38.69 | 4:58.70 | 227919 | 250338
16 | 55:37.64 | 3:03.37 | 250339 | 264100
17 | 58:41.26 | 5:33.54 | 264101 | 289129
18 | 64:15.05 | 7:25.40 | 289130 | 322544
19 | 71:40.45 | 4:54.42 | 322545 | 344636
Range status and errors
Selected range
Filename F:\CD8.wav
Peak level 98.8 %
Extraction speed 6.5 X
Range quality 100.0 %
Test CRC 77A68675
Copy CRC 77A68675
Copy OK
No errors occurred
AccurateRip summary
Track 1 accurately ripped (confidence 5) [FCAEEA6C] (AR v2)
Track 2 accurately ripped (confidence 5) [399CA9FB] (AR v2)
Track 3 accurately ripped (confidence 5) [26C68F93] (AR v2)
Track 4 accurately ripped (confidence 5) [3BF78007] (AR v2)
Track 5 accurately ripped (confidence 5) [A6F33C33] (AR v2)
Track 6 accurately ripped (confidence 5) [4C4626D1] (AR v2)
Track 7 accurately ripped (confidence 5) [3D39B154] (AR v2)
Track 8 accurately ripped (confidence 5) [313255D3] (AR v2)
Track 9 accurately ripped (confidence 5) [016DF12E] (AR v2)
Track 10 accurately ripped (confidence 5) [C69BFB94] (AR v2)
Track 11 accurately ripped (confidence 5) [BD442756] (AR v2)
Track 12 accurately ripped (confidence 5) [1F85834B] (AR v2)
Track 13 accurately ripped (confidence 5) [63D13E2B] (AR v2)
Track 14 accurately ripped (confidence 4) [AEF5DF3E] (AR v2)
Track 15 accurately ripped (confidence 4) [CC6B51E6] (AR v2)
Track 16 accurately ripped (confidence 5) [86D73DA5] (AR v2)
Track 17 accurately ripped (confidence 4) [61E493E1] (AR v2)
Track 18 accurately ripped (confidence 5) [734F47FC] (AR v2)
Track 19 accurately ripped (confidence 4) [FD1DFB7A] (AR v2)
All tracks accurately ripped
End of status report
---- CUETools DB Plugin V2.1.4
[CTDB TOCID: DEPXXb7phE16_FjCxNn9wL5ov2g-] found
Submit result: DEPXXb7phE16_FjCxNn9wL5ov2g- has been confirmed
Track | CTDB Status
1 | (1/1) Accurately ripped
2 | (1/1) Accurately ripped
3 | (1/1) Accurately ripped
4 | (1/1) Accurately ripped
5 | (1/1) Accurately ripped
6 | (1/1) Accurately ripped
7 | (1/1) Accurately ripped
8 | (1/1) Accurately ripped
9 | (1/1) Accurately ripped
10 | (1/1) Accurately ripped
11 | (1/1) Accurately ripped
12 | (1/1) Accurately ripped
13 | (1/1) Accurately ripped
14 | (1/1) Accurately ripped
15 | (1/1) Accurately ripped
16 | (1/1) Accurately ripped
17 | (1/1) Accurately ripped
18 | (1/1) Accurately ripped
19 | (1/1) Accurately ripped
==== Log checksum 64DEE99D45B37C8280EBF88619618887C38F738730FF4746FD1F24E5D0C034A8 ====

Disc 9

Exact Audio Copy V1.0 beta 4 from 7. December 2014
EAC extraction logfile from 20. October 2015, 8:39
Unknown Artist / Unknown Title
Used drive : HL-DT-STDVDRAM GH24NS90 Adapter: 1 ID: 0
Read mode : Secure
Utilize accurate stream : Yes
Defeat audio cache : No
Make use of C2 pointers : Yes
Read offset correction : 6
Overread into Lead-In and Lead-Out : No
Fill up missing offset samples with silence : Yes
Delete leading and trailing silent blocks : No
Null samples used in CRC calculations : Yes
Used interface : Native Win32 interface for Win NT & 2000
Used output format : User Defined Encoder
Selected bitrate : 896 kBit/s
Quality : High
Add ID3 tag : No
Command line compressor : C:\Program Files (x86)\Exact Audio Copy\Flac\flac.exe
Additional command line options : -8 -V -T "ARTIST=%artist%" -T "TITLE=%title%" -T "ALBUM=%albumtitle%" -T "DATE=%year%" -T "TRACKNUMBER=%tracknr%" -T "GENRE=%genre%" -T "PERFORMER=%albuminterpret%" -T "COMPOSER=%composer%" %haslyrics%–tag-from-file=LYRICS="%lyricsfile%"%haslyrics% -T "ALBUMARTIST=%albumartist%" -T "DISCNUMBER=%cdnumber%" -T "TOTALDISCS=%totalcds%" -T "TOTALTRACKS=%numtracks%" -T "COMMENT=%comment%" %source% -o %dest%
TOC of the extracted CD
Track | Start | Length | Start sector | End sector
---------------------------------------------------------
1 | 0:00.00 | 8:56.48 | 0 | 40247
2 | 8:56.48 | 10:38.07 | 40248 | 88104
3 | 19:34.55 | 2:26.60 | 88105 | 99114
4 | 22:01.40 | 4:13.27 | 99115 | 118116
5 | 26:14.67 | 2:17.14 | 118117 | 128405
6 | 28:32.06 | 4:11.63 | 128406 | 147293
7 | 32:43.69 | 1:39.36 | 147294 | 154754
8 | 34:23.30 | 2:04.52 | 154755 | 164106
9 | 36:28.07 | 2:08.72 | 164107 | 173778
10 | 38:37.04 | 2:17.54 | 173779 | 184107
11 | 40:54.58 | 1:36.53 | 184108 | 191360
12 | 42:31.36 | 2:21.41 | 191361 | 201976
13 | 44:53.02 | 2:58.44 | 201977 | 215370
14 | 47:51.46 | 3:51.22 | 215371 | 232717
15 | 51:42.68 | 5:08.31 | 232718 | 255848
16 | 56:51.24 | 3:08.10 | 255849 | 269958
17 | 59:59.34 | 2:32.28 | 269959 | 281386
18 | 62:31.62 | 3:05.19 | 281387 | 295280
19 | 65:37.06 | 2:30.24 | 295281 | 306554
Range status and errors
Selected range
Filename F:\CD9.wav
Peak level 98.8 %
Extraction speed 5.8 X
Range quality 100.0 %
Test CRC 51B16D79
Copy CRC 51B16D79
Copy OK
No errors occurred
AccurateRip summary
Track 1 accurately ripped (confidence 5) [2CF83340] (AR v2)
Track 2 accurately ripped (confidence 5) [3FED9DAE] (AR v2)
Track 3 accurately ripped (confidence 5) [3F48D854] (AR v2)
Track 4 accurately ripped (confidence 5) [2D092809] (AR v2)
Track 5 accurately ripped (confidence 5) [27D6B4C1] (AR v2)
Track 6 accurately ripped (confidence 5) [8D0A53B6] (AR v2)
Track 7 accurately ripped (confidence 5) [C44AC8ED] (AR v2)
Track 8 accurately ripped (confidence 5) [CF1C809A] (AR v2)
Track 9 accurately ripped (confidence 5) [4F7AB7B7] (AR v2)
Track 10 accurately ripped (confidence 5) [1B8B3315] (AR v2)
Track 11 accurately ripped (confidence 5) [7CBA346C] (AR v2)
Track 12 accurately ripped (confidence 5) [FBCAA724] (AR v2)
Track 13 accurately ripped (confidence 5) [6328DAFF] (AR v2)
Track 14 accurately ripped (confidence 5) [496D8A21] (AR v2)
Track 15 accurately ripped (confidence 5) [40575E3A] (AR v2)
Track 16 accurately ripped (confidence 5) [CE42A076] (AR v2)
Track 17 accurately ripped (confidence 5) [E937A87C] (AR v2)
Track 18 accurately ripped (confidence 5) [BF86CCCC] (AR v2)
Track 19 accurately ripped (confidence 5) [DB1F6591] (AR v2)
All tracks accurately ripped
End of status report
---- CUETools DB Plugin V2.1.4
[CTDB TOCID: 0ShqVMZPf4HWXRKmPN_4kxw8TJk-] found
Submit result: 0ShqVMZPf4HWXRKmPN_4kxw8TJk- has been confirmed
Track | CTDB Status
1 | (1/1) Accurately ripped
2 | (1/1) Accurately ripped
3 | (1/1) Accurately ripped
4 | (1/1) Accurately ripped
5 | (1/1) Accurately ripped
6 | (1/1) Accurately ripped
7 | (1/1) Accurately ripped
8 | (1/1) Accurately ripped
9 | (1/1) Accurately ripped
10 | (1/1) Accurately ripped
11 | (1/1) Accurately ripped
12 | (1/1) Accurately ripped
13 | (1/1) Accurately ripped
14 | (1/1) Accurately ripped
15 | (1/1) Accurately ripped
16 | (1/1) Accurately ripped
17 | (1/1) Accurately ripped
18 | (1/1) Accurately ripped
19 | (1/1) Accurately ripped
==== Log checksum AD65286FA98EDEDE97978853537B08296000D76E528687CCC163DE20CAADE7C6 ====

Disc 10

Exact Audio Copy V1.0 beta 4 from 7. December 2014
EAC extraction logfile from 20. October 2015, 8:56
Unknown Artist / Unknown Title
Used drive : HL-DT-STDVDRAM GH24NS90 Adapter: 1 ID: 0
Read mode : Secure
Utilize accurate stream : Yes
Defeat audio cache : No
Make use of C2 pointers : Yes
Read offset correction : 6
Overread into Lead-In and Lead-Out : No
Fill up missing offset samples with silence : Yes
Delete leading and trailing silent blocks : No
Null samples used in CRC calculations : Yes
Used interface : Native Win32 interface for Win NT & 2000
Used output format : User Defined Encoder
Selected bitrate : 896 kBit/s
Quality : High
Add ID3 tag : No
Command line compressor : C:\Program Files (x86)\Exact Audio Copy\Flac\flac.exe
Additional command line options : -8 -V -T "ARTIST=%artist%" -T "TITLE=%title%" -T "ALBUM=%albumtitle%" -T "DATE=%year%" -T "TRACKNUMBER=%tracknr%" -T "GENRE=%genre%" -T "PERFORMER=%albuminterpret%" -T "COMPOSER=%composer%" %haslyrics%–tag-from-file=LYRICS="%lyricsfile%"%haslyrics% -T "ALBUMARTIST=%albumartist%" -T "DISCNUMBER=%cdnumber%" -T "TOTALDISCS=%totalcds%" -T "TOTALTRACKS=%numtracks%" -T "COMMENT=%comment%" %source% -o %dest%
TOC of the extracted CD
Track | Start | Length | Start sector | End sector
---------------------------------------------------------
1 | 0:00.00 | 1:56.23 | 0 | 8722
2 | 1:56.23 | 11:26.54 | 8723 | 60226
3 | 13:23.02 | 1:54.49 | 60227 | 68825
4 | 15:17.51 | 6:31.23 | 68826 | 98173
5 | 21:48.74 | 6:39.58 | 98174 | 128156
6 | 28:28.57 | 5:07.51 | 128157 | 151232
7 | 33:36.33 | 8:26.56 | 151233 | 189238
8 | 42:03.14 | 2:40.43 | 189239 | 201281
9 | 44:43.57 | 2:47.45 | 201282 | 213851
10 | 47:31.27 | 3:52.16 | 213852 | 231267
11 | 51:23.43 | 2:50.74 | 231268 | 244091
12 | 54:14.42 | 2:19.28 | 244092 | 254544
13 | 56:33.70 | 4:42.63 | 254545 | 275757
14 | 61:16.58 | 2:16.24 | 275758 | 285981
Range status and errors
Selected range
Filename F:\CD10.wav
Peak level 92.3 %
Extraction speed 5.8 X
Range quality 100.0 %
Test CRC A3ECC85C
Copy CRC A3ECC85C
Copy OK
No errors occurred
AccurateRip summary
Track 1 accurately ripped (confidence 5) [2F377E48] (AR v2)
Track 2 accurately ripped (confidence 5) [75E5ABE2] (AR v2)
Track 3 accurately ripped (confidence 5) [640E8E6C] (AR v2)
Track 4 accurately ripped (confidence 5) [FF9ED109] (AR v2)
Track 5 accurately ripped (confidence 5) [E687B06D] (AR v2)
Track 6 accurately ripped (confidence 5) [DB57D4FC] (AR v2)
Track 7 accurately ripped (confidence 4) [5B2D2C3D] (AR v2)
Track 8 accurately ripped (confidence 5) [9411C7FF] (AR v2)
Track 9 accurately ripped (confidence 5) [C557942D] (AR v2)
Track 10 accurately ripped (confidence 5) [CA6E2300] (AR v2)
Track 11 accurately ripped (confidence 5) [2F9BE781] (AR v2)
Track 12 accurately ripped (confidence 5) [CC534B7C] (AR v2)
Track 13 accurately ripped (confidence 5) [CC883D72] (AR v2)
Track 14 accurately ripped (confidence 5) [41791EAB] (AR v2)
All tracks accurately ripped
End of status report
---- CUETools DB Plugin V2.1.4
[CTDB TOCID: cHtBCnxRAPKhI8l_NjSu7kX.OJw-] found
Submit result: cHtBCnxRAPKhI8l_NjSu7kX.OJw- has been confirmed
Track | CTDB Status
1 | (1/1) Accurately ripped
2 | (1/1) Accurately ripped
3 | (1/1) Accurately ripped
4 | (1/1) Accurately ripped
5 | (1/1) Accurately ripped
6 | (1/1) Accurately ripped
7 | (1/1) Accurately ripped
8 | (1/1) Accurately ripped
9 | (1/1) Accurately ripped
10 | (1/1) Accurately ripped
11 | (1/1) Accurately ripped
12 | (1/1) Accurately ripped
13 | (1/1) Accurately ripped
14 | (1/1) Accurately ripped
==== Log checksum 3D5FD5445B3516D1AE54D54338F0A960E0D89EEFEAC4F2BF68DED3C9DFC718A7 ====



Показать сообщения:    

Текущее время: 08-Дек 17:20

Часовой пояс: UTC + 3


Вы не можете начинать темы
Вы не можете отвечать на сообщения
Вы не можете редактировать свои сообщения
Вы не можете удалять свои сообщения
Вы не можете голосовать в опросах
Вы не можете прикреплять файлы к сообщениям
Вы не можете скачивать файлы