Хоа Бинь / Hoa-Binh (Рауль Кутар / Raoul Coutard) [1970, Франция, драма, DVDRip] VO (den904) + Sub Rus + Original Fre


Статистика раздачи [Обновить пиров]
Размер:  1.48 GB   |    Зарегистрирован:  8 месяцев 16 дней   |    Скачан:  1 раз

Полного источника не было: 26 дней

 
   
 
 
 

[Цитировать]

Хоа Бинь / Hoa-Binh
Страна: Франция
Жанр: драма
Год выпуска: 1970
Продолжительность: 01:26:41
Перевод: Одноголосый закадровый den904
Cубтитры: русские
Оригинальная аудиодорожка: французский
Режиссер: Рауль Кутар / Raoul Coutard
В ролях: Фи Лан / Phi Lan, Huynh Cazenas, Ле Нху / Le Quynh, Марсель Лан Фонг / Marcel Lan Phuong, Буи Тхи Тан / Bui Thi Thanh, Tran Van Lich, Ан Туан / Anh Tuan, Даниэль Делорм / Danièle Delorme, Кью Ан / Kieu Anh, Ксюан Ха / Xuan Ha
Описание: Французская драма, рассказывающая о войне во Вьетнаме и о том, как она отразилась (и не отразилась) на детях. В основу сюжета фильма положен роман Франсуаза Лоррена. Центральным персонажем картины выступает маленький вьетнамский мальчик, которому выпала нелегкая доля — расти в эпоху ужаса и страданий. «Хоа-Бинь» означает по-вьетнамски «мир». Режиссер картины пытается донести до зрителей состояние невинности и чистоты, в котором находится юный герой и его сверстники. Несмотря на то, что война окружает их, и ежедневно вьетнамские дети сталкиваются с жестокостью мира и людей в нем, они не перестают верить в чудо.
Доп. информация: http://www.imdb.com/title/tt0065838/
Приз "Лучший дебют" Каннского кинофестиваля 1970г.
Номинант от Франции "Лучший фильм на иностранном языке" Оскара 1971г.
Перевод: DeepestLore
Озвучание: den904
Сэмпл: http://multi-up.com/1085743
Качество видео: DVDRip
Формат видео: AVI
Видео: XviD, 656x400, 25.000 fps, 2048 kbps
Аудио: AC3, 48000 Hz, 2 ch, 192 kbps (русский)
Аудио 2: AC3, 48000 Hz, 2 ch, 192 kbps (французский)
Формат субтитров: softsub (SRT)

MediaInfo

General
Complete name : F:\РУТРЕКЕР\Хоа Бинь\Hoa-binh (1970).avi
Format : AVI
Format/Info : Audio Video Interleave
File size : 1.48 GiB
Duration : 1h 26mn
Overall bit rate : 2 447 Kbps
Writing application : VirtualDubMod 1.5.10.2 (build 2540/release)
Writing library : VirtualDubMod build 2540/release
Video
ID : 0
Format : MPEG-4 Visual
Format profile : Advanced Simple@L5
Format settings, BVOP : 2
Format settings, QPel : No
Format settings, GMC : No warppoints
Format settings, Matrix : Default (MPEG)
Codec ID : XVID
Codec ID/Hint : XviD
Duration : 1h 26mn
Bit rate : 2 048 Kbps
Width : 656 pixels
Height : 400 pixels
Display aspect ratio : 16:10
Frame rate : 25.000 fps
Color space : YUV
Chroma subsampling : 4:2:0
Bit depth : 8 bits
Scan type : Progressive
Compression mode : Lossy
Bits/(Pixel*Frame) : 0.312
Stream size : 1.24 GiB (84%)
Writing library : XviD 1.2.1 (UTC 2008-12-04)
Audio #1
ID : 1
Format : AC-3
Format/Info : Audio Coding 3
Mode extension : CM (complete main)
Format settings, Endianness : Big
Codec ID : 2000
Duration : 1h 26mn
Bit rate mode : Constant
Bit rate : 192 Kbps
Channel(s) : 2 channels
Channel positions : Front: L R
Sampling rate : 48.0 KHz
Bit depth : 16 bits
Compression mode : Lossy
Stream size : 119 MiB (8%)
Alignment : Split accross interleaves
Interleave, duration : 40 ms (1.00 video frame)
Interleave, preload duration : 500 ms
Audio #2
ID : 2
Format : AC-3
Format/Info : Audio Coding 3
Mode extension : CM (complete main)
Format settings, Endianness : Big
Codec ID : 2000
Duration : 1h 26mn
Bit rate mode : Constant
Bit rate : 192 Kbps
Channel(s) : 2 channels
Channel positions : Front: L R
Sampling rate : 48.0 KHz
Bit depth : 16 bits
Compression mode : Lossy
Stream size : 119 MiB (8%)
Alignment : Split accross interleaves
Interleave, duration : 40 ms (1.00 video frame)
Interleave, preload duration : 500 ms

Скриншот c названием фильма

[teatrix.ru].t22852.torrent 
Торрент: Зарегистрирован [ 2016-03-21 00:40 ] · 587F51D91E2F0FCAC195E9511813AC0B7CA4E046

Скачать .torrent

Скачать

15 KB

Статус: проверено
Скачан: 1 раз
Размер: 1.48 GB
terms.php



Быстрый ответ

Имя:

      
Для отправки сообщений необходимо включить JavaScript
Показать сообщения:    

Текущее время: 06-Дек 17:04

Часовой пояс: UTC + 3


Вы можете начинать темы
Вы можете отвечать на сообщения
Вы не можете редактировать свои сообщения
Вы не можете удалять свои сообщения
Вы не можете голосовать в опросах
Вы не можете прикреплять файлы к сообщениям
Вы можете скачивать файлы