The Original Three Tenors Concert (1990) / 1ый концерт / Три тенора: Каррерас, Доминго и Паваротти [1990, Concert, DVDRip-AVC]


Статистика раздачи [Обновить пиров]
Размер:  2.2 GB   |    Зарегистрирован:  8 месяцев 15 дней   |    Скачан:  0 раз

Полного источника не было: Никогда

 
   
 
 
 

[Цитировать]

1ый концерт / Три тенора - Каррерас, Доминго и Паваротти

2 концерт
Дата/Год выпуска: 1990
Жанр: Концерт
Место проведения: 'Термы Каракаллы' (Красно-кирпичные руины Caracalla, юго-восток от центра древнего Рима.
Язык комментариев: Оригинал
Продолжительность: 00:50:26 + 00:35:34
Исполнители:
Carreras, Domingo & Pavarotti
Orchestra del Maggio Musicale Fiorentino,
Orchestra del Teatro dell'Opera di Roma,
conducted by Zubin Mehta.
Описание:
Первый концерт на развалинах древнеримских Терм Каракаллы.
Съёмка проходит в живописных руинах, напоминающих развалины древнего замка, в действительности - 'Термы Каракаллы' (Красно-кирпичные руины Caracalla лежат к юго-востоку от центра древнего Рима. 27-акровый комплекс (11 гектаров)). Действие великолепно вписывается в ни с чем не сравнимую атмосферу древности.

Треклист

Lamento di Federico (Cilea: L'Alesienna) - (Carreras)
O,Paradis! (Meyerbeer: L'Africaine) - (Domingo)
Recondita armonia (Puccini: Tosca) - (Pavarotti)
Dein ist mein ganzes Herz (Lehar: Das Land des Lachelns / оркестровка - Klickmann) - (Domingo)
Rondine al nido (De Crescenzo / арранжировка - Mancini) - (Pavarotti)
Core'ngrato (Cardillo / арранж. - Chiaramello) - (Carreras)
I Vespri Siciliani - Увертюра к опере Джузеппе Верди "Сициллийская вечерня". - (Zubin Mehta, orch.)
Torna a Surriento (De Curtis / арранж. - Chiaramello) - (Pavarotti)
Granada (Lara / орк. - Hayes) - (Carreras)
No puede ser (Sorozabal: La Tabernera del Puerto) - (Domingo)
L'Improvviso (Giordano: Andrea Chenier) - (Carreras)
E lucevan le stelle (Puccini: Tosca) - (Domingo)
Nessun Dorma (Puccini: Turandot) - (Pavarotti)
Finale Medley (arr. Lalo Schifrin) - (исп. Carreras / Domingo / Pavarotti):
- "Maria - Tonight" (Bernstein: West Side Story) -
- "O Paese d'O Sole" (D'Annibale) -
- "Cielito Lindo" (традиционная (популярная) версия) -
- "Memory" (A.Lloyd Webber: Cats) -
- "Очи чёрные" (традиционная версия) -
- "Caminito" (Filiberto) -
- "La vie en rose" (Louiguy) -
- "Mattinata" (Leoncavallo) -
- "Wien, Wien" (Sieczynski) -
- "Amapola" (Lacalle)-
- " 'O Sole mio" (Di Capua)
'O Sole mio (Di Capua) - (Carreras / Domingo / Pavarotti)
Nessun Dorma (Puccini: Turandot) - (Carreras / Domingo / Pavarotti)
Качество: DVDRip-AVC
Формат: MKV
Видео кодек: H.264
Аудио кодек: AC3
Видео: 704x478 (-> 750x478) at 29.970 fps, MPEG-4 AVC (High@L3.1), 1 765 Kbps
Аудио 1: AC3 | 48 kHz | 5.1, 384 kbp |
Аудио 2: PCM | 48 kHz | 2.0, 1536 kbp |

СкриншотыP.1

MIConcert P.1

General
Unique ID : 231199887950863553417584736468501777677 (0xADEF7A8E55AAAD2FA85EBBBA54C7CD0D)
Complete name : 1.Carreras.Domingo.Pavarott_Mehta.1990_P1.DVDRip-AVC.mkv
Format : Matroska
Format version : Version 4 / Version 2
File size : 1.30 GiB
Duration : 50mn 26s
Overall bit rate : 3 687 Kbps
Encoded date : UTC 2016-01-22 18:23:01
Writing application : mkvmerge v8.3.0 ('Over the Horizon') 64bit
Writing library : libebml v1.3.1 + libmatroska v1.4.2
Video
ID : 1
Format : AVC
Format/Info : Advanced Video Codec
Format profile : High@L3.1
Format settings, CABAC : Yes
Format settings, ReFrames : 11 frames
Codec ID : V_MPEG4/ISO/AVC
Duration : 50mn 26s
Bit rate : 1 765 Kbps
Width : 704 pixels
Height : 478 pixels
Display aspect ratio : 16:10
Original display aspect rat : 16:10
Frame rate mode : Constant
Frame rate : 29.970 (30000/1001) fps
Color space : YUV
Chroma subsampling : 4:2:0
Bit depth : 8 bits
Scan type : Progressive
Bits/(Pixel*Frame) : 0.175
Stream size : 637 MiB (48%)
Writing library : x264 core 146 r2538 121396c
Encoding settings : cabac=1 / ref=11 / deblock=1:-2:-2 / analyse=0x3:0x133 / me=umh / subme=11 / psy=1 / psy_rd=1.10:0.05 / mixed_ref=1 / me_range=32 / chroma_me=1 / trellis=2 / 8x8dct=1 / cqm=0 / deadzone=21,11 / fast_pskip=0 / chroma_qp_offset=-3 / threads=6 / lookahead_threads=1 / sliced_threads=0 / nr=0 / decimate=1 / interlaced=0 / bluray_compat=0 / constrained_intra=0 / bframes=8 / b_pyramid=2 / b_adapt=2 / b_bias=0 / direct=1 / weightb=1 / open_gop=0 / weightp=2 / keyint=250 / keyint_min=25 / scenecut=40 / intra_refresh=0 / rc=crf / mbtree=0 / crf=18.0 / qcomp=0.65 / qpmin=0 / qpmax=69 / qpstep=4 / ip_ratio=1.40 / pb_ratio=1.30 / aq=3:0.80
Language : Italian
Default : Yes
Forced : No
Color range : Full
Color primaries : BT.601 NTSC
Transfer characteristics : BT.601
Matrix coefficients : BT.601
Audio #1
ID : 2
Format : AC-3
Format/Info : Audio Coding 3
Mode extension : CM (complete main)
Format settings, Endianness : Big
Codec ID : A_AC3
Duration : 50mn 26s
Bit rate mode : Constant
Bit rate : 384 Kbps
Channel(s) : 5 channels
Channel positions : Front: L C R, Side: L R
Sampling rate : 48.0 KHz
Frame rate : 31.250 fps (1536 spf)
Compression mode : Lossy
Stream size : 139 MiB (10%)
Title : AC3 | 48 kHz | 5.1, 384 kbps; Original
Default : Yes
Forced : No
Audio #2
ID : 3
Format : PCM
Codec ID : A_PCM/INT/LIT
Duration : 50mn 26s
Bit rate mode : Constant
Bit rate : 1 536 Kbps
Channel(s) : 2 channels
Sampling rate : 48.0 KHz
Frame rate : 32.000 fps (1500 spf)
Bit depth : 16 bits
Stream size : 554 MiB (42%)
Title : PCM | 48 kHz | 16bit | 2.0, 1536 kbps; Original
Default : No
Forced : No

Concert P.2

General
Unique ID : 210806068181950629807933026468514380995 (0x9E97C59C5A813D32A08E21DA5F323CC3)
Complete name : 1.Carreras.Domingo.Pavarott_Mehta.1990_P2.DVDRip-AVC.mkv
Format : Matroska
Format version : Version 4 / Version 2
File size : 924 MiB
Duration : 36mn 2s
Overall bit rate : 3 583 Kbps
Encoded date : UTC 2016-01-22 18:27:08
Writing application : mkvmerge v8.3.0 ('Over the Horizon') 64bit
Writing library : libebml v1.3.1 + libmatroska v1.4.2
Video
ID : 1
Format : AVC
Format/Info : Advanced Video Codec
Format profile : High@L3.1
Format settings, CABAC : Yes
Format settings, ReFrames : 11 frames
Codec ID : V_MPEG4/ISO/AVC
Duration : 36mn 2s
Bit rate : 1 661 Kbps
Width : 704 pixels
Height : 478 pixels
Display aspect ratio : 16:10
Original display aspect rat : 16:10
Frame rate mode : Constant
Frame rate : 29.970 (30000/1001) fps
Color space : YUV
Chroma subsampling : 4:2:0
Bit depth : 8 bits
Scan type : Progressive
Bits/(Pixel*Frame) : 0.165
Stream size : 428 MiB (46%)
Writing library : x264 core 146 r2538 121396c
Encoding settings : cabac=1 / ref=11 / deblock=1:-2:-2 / analyse=0x3:0x133 / me=umh / subme=11 / psy=1 / psy_rd=1.10:0.05 / mixed_ref=1 / me_range=32 / chroma_me=1 / trellis=2 / 8x8dct=1 / cqm=0 / deadzone=21,11 / fast_pskip=0 / chroma_qp_offset=-3 / threads=6 / lookahead_threads=1 / sliced_threads=0 / nr=0 / decimate=1 / interlaced=0 / bluray_compat=0 / constrained_intra=0 / bframes=8 / b_pyramid=2 / b_adapt=2 / b_bias=0 / direct=1 / weightb=1 / open_gop=0 / weightp=2 / keyint=250 / keyint_min=25 / scenecut=40 / intra_refresh=0 / rc=crf / mbtree=0 / crf=18.0 / qcomp=0.65 / qpmin=0 / qpmax=69 / qpstep=4 / ip_ratio=1.40 / pb_ratio=1.30 / aq=3:0.80
Language : Italian
Default : Yes
Forced : No
Color range : Full
Color primaries : BT.601 NTSC
Transfer characteristics : BT.601
Matrix coefficients : BT.601
Audio #1
ID : 2
Format : AC-3
Format/Info : Audio Coding 3
Mode extension : CM (complete main)
Format settings, Endianness : Big
Codec ID : A_AC3
Duration : 36mn 2s
Bit rate mode : Constant
Bit rate : 384 Kbps
Channel(s) : 5 channels
Channel positions : Front: L C R, Side: L R
Sampling rate : 48.0 KHz
Frame rate : 31.250 fps (1536 spf)
Compression mode : Lossy
Delay relative to video : 7ms
Stream size : 99.0 MiB (11%)
Title : AC3 | 48 kHz | 5.1, 384 kbps; Original
Language : Italian
Default : Yes
Forced : No
Audio #2
ID : 3
Format : PCM
Codec ID : A_PCM/INT/LIT
Duration : 36mn 2s
Bit rate mode : Constant
Bit rate : 1 536 Kbps
Channel(s) : 2 channels
Sampling rate : 48.0 KHz
Frame rate : 32.000 fps (1500 spf)
Bit depth : 16 bits
Stream size : 396 MiB (43%)
Title : PCM | 48 kHz | 16bit | 2.0, 1536 kbps; Original
Language : Italian
Default : No
Forced : No

Log x264P.1

avs [info]: 704x478p 16:15 @ 30000/1001 fps (cfr)
x264 [info]: profile High, level 3.1
x264 [info]: frame I:422 Avg QP:17.89 size: 42583
x264 [info]: frame P:18122 Avg QP:19.07 size: 16880
x264 [info]: frame B:72157 Avg QP:21.62 size: 4763
x264 [info]: consecutive B-frames: 0.8% 0.6% 8.8% 14.2% 15.3% 52.7% 6.0% 0.7% 0.8%
x264 [info]: mb I I16..4: 3.8% 78.8% 17.3%
x264 [info]: mb P I16..4: 0.3% 8.6% 1.6% P16..4: 33.5% 37.1% 14.7% 2.2% 0.2% skip: 1.7%
x264 [info]: mb B I16..4: 0.0% 0.7% 0.2% B16..8: 30.9% 16.0% 2.3% direct:10.5% skip:39.3% L0:37.8% L1:40.8% BI:21.4%
x264 [info]: 8x8 transform intra:80.7% inter:42.1%
x264 [info]: coded y,uvDC,uvAC intra: 96.0% 93.7% 69.3% inter: 24.7% 26.4% 2.7%
x264 [info]: i16 v,h,dc,p: 10% 17% 5% 68%
x264 [info]: i8 v,h,dc,ddl,ddr,vr,hd,vl,hu: 14% 12% 11% 7% 9% 10% 9% 13% 15%
x264 [info]: i4 v,h,dc,ddl,ddr,vr,hd,vl,hu: 11% 17% 5% 7% 10% 12% 11% 11% 15%
x264 [info]: i8c dc,h,v,p: 38% 22% 19% 21%
x264 [info]: Weighted P-Frames: Y:7.0% UV:5.3%
x264 [info]: ref P L0: 40.5% 9.4% 21.0% 5.7% 6.1% 3.8% 4.3% 2.1% 2.5% 1.9% 2.4% 0.4% 0.0%
x264 [info]: ref B L0: 79.3% 11.6% 3.2% 1.8% 1.1% 1.0% 0.8% 0.6% 0.4% 0.2%
x264 [info]: ref B L1: 94.9% 5.1%
x264 [info]: kb/s:1764.67

P.2

avs [info]: 704x478p 16:15 @ 30000/1001 fps (cfr)
x264 [info]: profile High, level 3.1
x264 [info]: frame I:310 Avg QP:17.41 size: 41456
x264 [info]: frame P:12577 Avg QP:18.59 size: 16399
x264 [info]: frame B:51935 Avg QP:21.32 size: 4428
x264 [info]: consecutive B-frames: 0.6% 0.5% 7.7% 11.5% 15.1% 56.1% 7.3% 0.4% 0.6%
x264 [info]: mb I I16..4: 4.2% 78.8% 17.0%
x264 [info]: mb P I16..4: 0.3% 7.9% 1.4% P16..4: 33.6% 38.2% 14.6% 2.1% 0.2% skip: 1.6%
x264 [info]: mb B I16..4: 0.0% 0.5% 0.1% B16..8: 30.8% 15.8% 2.2% direct: 9.6% skip:40.9% L0:38.3% L1:41.3% BI:20.4%
x264 [info]: 8x8 transform intra:80.9% inter:42.3%
x264 [info]: coded y,uvDC,uvAC intra: 94.9% 94.1% 73.1% inter: 23.1% 25.2% 2.6%
x264 [info]: i16 v,h,dc,p: 13% 16% 6% 65%
x264 [info]: i8 v,h,dc,ddl,ddr,vr,hd,vl,hu: 14% 10% 11% 7% 9% 11% 10% 12% 15%
x264 [info]: i4 v,h,dc,ddl,ddr,vr,hd,vl,hu: 13% 14% 6% 7% 10% 13% 11% 11% 15%
x264 [info]: i8c dc,h,v,p: 40% 22% 19% 19%
x264 [info]: Weighted P-Frames: Y:5.8% UV:4.2%
x264 [info]: ref P L0: 40.1% 9.0% 21.2% 5.7% 6.3% 3.8% 4.5% 2.2% 2.6% 1.9% 2.4% 0.4% 0.0%
x264 [info]: ref B L0: 79.7% 11.3% 3.1% 1.7% 1.1% 1.0% 0.8% 0.6% 0.3% 0.2%
x264 [info]: ref B L1: 95.1% 4.9%
x264 [info]: kb/s:1661.03

P.S.: Приятного прослушивания! . Концерт, к релизу которого я шел 15 лет.
[teatrix.ru].t22854.torrent 
Торрент: Зарегистрирован [ 2016-03-21 00:40 ] · B88C3423B7D54C34CD9B237BF53AE48F8C6E7593

Скачать .torrent

Скачать

12 KB

Статус: проверено
Скачан: 0 раз
Размер: 2.2 GB
terms.php



Быстрый ответ

Имя:

      
Для отправки сообщений необходимо включить JavaScript
Показать сообщения:    

Текущее время: 05-Дек 15:34

Часовой пояс: UTC + 3


Вы можете начинать темы
Вы можете отвечать на сообщения
Вы не можете редактировать свои сообщения
Вы не можете удалять свои сообщения
Вы не можете голосовать в опросах
Вы не можете прикреплять файлы к сообщениям
Вы можете скачивать файлы