[TR24][OF] Jean Sibelius - Scaramouche (Turku Philharmonic Orchestra, Leif Segerstam) - 2015 (Orchestral, Classical)


Статистика раздачи [Обновить пиров]
Размер:  1.09 GB   |    Зарегистрирован:  8 месяцев 18 дней   |    Скачан:  0 раз

Полного источника не было: Никогда

 
   
 
 
 

[Цитировать]

Jean Sibelius - Scaramouche
Формат записи/Источник записи: [TR24][OF]
Наличие водяных знаков: Нет
Год издания/переиздания диска: 2015
Жанр: Orchestral
Издатель(лейбл): Naxos
Продолжительность: 01:11:01
Исполнитель:
Turku Philharmonic Orchestra,
Leif Segerstam, Conductor,
Bendik Goldstein, viola,
Roi Ruottinen, cello.
Recorded at Turku Concert Hall, Finland, September 8-12, 2014.
Контейнер: FLAC (*.flac)
Тип рипа: tracks
Разрядность: 24/96
Количество каналов: 2.0
Источник: Presto Classical

DR-Report

foobar2000 1.3.8 / Dynamic Range Meter 1.1.1
log date: 2016-01-18 18:15:02
--------------------------------------------------------------------------------
Analyzed: Bendik Goldstein, Roi Ruottinen, Turku Philharmonic Orchestra, Leif Segerstam / Sibelius: Scaramouche, op.71 (Complete Ballet)
--------------------------------------------------------------------------------
DR Peak RMS Duration Track
--------------------------------------------------------------------------------
DR12 -14.75 dB -32.17 dB 0:56 01-Scaramouche, op.71, Act I, Scene 1: Lento assai
DR13 -12.31 dB -31.18 dB 2:10 02-Scaramouche, op.71, Act I, Scene 2: [Lento assai]
DR14 -9.27 dB -29.34 dB 3:34 03-Scaramouche, op.71, Act I, Scene 3: [Lento assai] – Andante con moto
DR12 -10.96 dB -27.53 dB 2:52 04-Scaramouche, op.71, Act I, Scene 4: Tempo di bolero
DR17 -0.61 dB -25.59 dB 7:48 05-Scaramouche, op.71, Act I, Scene 5: Lento – Tempo di bolero – Lento assai
DR13 -7.82 dB -28.67 dB 3:07 06-Scaramouche, op.71, Act I, Scene 6: Tempo di valse
DR11 -12.69 dB -27.22 dB 0:49 07-Scaramouche, op.71, Act I, Scene 7: Poco moderato
DR12 -0.60 dB -22.29 dB 2:20 08-Scaramouche, op.71, Act I, Scene 8: [Poco moderato]
DR10 -15.86 dB -30.59 dB 0:41 09-Scaramouche, op.71, Act I, Scene 9: Tempo di valse
DR12 -9.02 dB -29.12 dB 6:43 10-Scaramouche, op.71, Act I, Scene 10: Adagio – Allegro – Adagio
DR11 -21.64 dB -44.47 dB 0:23 11-Scaramouche, op.71, Act II, Scene 1: Meno tranquillo
DR11 -21.53 dB -37.37 dB 0:29 12-Scaramouche, op.71, Act II, Scene 2: Allegretto
DR11 -13.82 dB -33.35 dB 1:27 13-Scaramouche, op.71, Act II, Scene 3: Andantino
DR11 -18.08 dB -39.26 dB 0:25 14-Scaramouche, op.71, Act II, Scene 4: Allegretto
DR12 -10.32 dB -27.94 dB 3:26 15-Scaramouche, op.71, Act II, Scene 5: [Allegretto] – Andantino
DR13 -17.03 dB -38.00 dB 2:31 16-Scaramouche, op.71, Act II, Scene 6: Tranquillo assai
DR17 -0.34 dB -27.73 dB 7:47 17-Scaramouche, op.71, Act II, Scene 7: [Andantino] – Meno tranquillo – Lento – Moderato – Allegro moderato
DR13 -24.09 dB -44.28 dB 3:30 18-Scaramouche, op.71, Act II, Scene 8: Allegretto – Allegro
DR13 -10.08 dB -29.60 dB 4:00 19-Scaramouche, op.71, Act II, Scene 9: [Allegro]
DR17 -0.57 dB -26.86 dB 15:32 20-Scaramouche, op.71, Act II, Scene 10: Andante – Lento assai – Andantino
DR9 -16.35 dB -30.87 dB 0:30 21-Scaramouche, op.71, Act II, Scene 11: [Grave assai]
--------------------------------------------------------------------------------
Number of tracks: 21
Official DR value: DR13
Samplerate: 96000 Hz
Channels: 2
Bits per sample: 24
Bitrate: 1940 kbps
Codec: FLAC
================================================================================

Треклист

Scaramouche, Op. 71
Act I
1. Scene 1: Lento assai 00:57
2. Scene 2: [Lento assai] 02:10
3. Scene 3: [Lento assai] - Andante con moto 03:34
4. Scene 4: Tempo di bolero 02:52
5. Scene 5: Lento - Tempo di bolero - Lento assai 07:44
6. Scene 6: Tempo di valse 03:11
7. Scene 7: Poco moderato 00:49
8. Scene 8: [Poco moderato] 02:20
9. Scene 9: Tempo di valse 00:41
10. Scene 10: Adagio - Allegro - Adagio … 06:43
Act II
11. Scene 1: Meno tranquillo 00:23
12. Scene 2: Allegretto 00:28
13. Scene 3: Andantino 01:27
14. Scene 4: Allegretto 00:25
15. Scene 5: [Allegretto] - Andantino 03:26
16. Scene 6: Tranquillo assai 02:31
17. Scene 7: [Andantino] - Meno tranquillo - Lento - Moderato... 07:47
18. Scene 8: Allegretto - Allegro 03:30
19. Scene 9: [Allegro] 04:00
20. Scene 10: Andante - Lento assai - Andantino … 15:32
21. Scene 11: [Grave assai] 00:30
[teatrix.ru].t22855.torrent 
Торрент: Зарегистрирован [ 2016-03-21 00:40 ] · 5F04FC1C578362A76C8D3AD9AB89DF0B3D37CD75

Скачать .torrent

Скачать

13 KB

Статус: проверено
Скачан: 0 раз
Размер: 1.09 GB
terms.php



Быстрый ответ

Имя:

      
Для отправки сообщений необходимо включить JavaScript
Показать сообщения:    

Текущее время: 08-Дек 19:05

Часовой пояс: UTC + 3


Вы можете начинать темы
Вы можете отвечать на сообщения
Вы не можете редактировать свои сообщения
Вы не можете удалять свои сообщения
Вы не можете голосовать в опросах
Вы не можете прикреплять файлы к сообщениям
Вы можете скачивать файлы