Перекресток (Анастасия Мирошниченко) [2014, Документальный фильм, WEBRip]


Статистика раздачи [Обновить пиров]
Размер:  1.13 GB   |    Зарегистрирован:  8 месяцев 18 дней   |    Скачан:  2 раза

Полного источника не было: 2 месяца

 
   
 
 
 

[Цитировать]

Перекресток, 2014, Белоруссия, Анастасия Мирошниченко
Дата/Год выпуска: 2014
Страна: Белоруссия
Жанр: Документальный фильм
Продолжительность: 00:54:38
Перевод: Не требуется
Русские субтитры: нет
Оригинальная аудиодорожка: русский
Режиссер: Анастасия Мирошниченко
Телеканал: Россия К
Описание: Делал для себя. В некоторых местах подтормаживает и распадается. Раздаю т.к. этого шедевра не нашел в раздачах.
Об одном годе жизни художника, который живет не так, как все. Для жителей Гомеля бездомный голубоглазый старичок, рисующий "картинки" на улице - местная достопримечательность. Для искусствоведов - феномен, достойный пристального внимания, серьезный и самобытный художник. А для людей, с ннм знакомых, - человек, который рисует не просто жизнь, а свой особый взгляд на нее, свою философию, свое представление о добре и зле. Его творческие мастерские – зал камер хранения железнодорожного вокзала, лестничная клетка, а то и просто бетонная плита на улице. Он уже 20 лет спит в подворотнях, вокзальных переходах, на скамейках в тихих дворах. Он никогда не приходит домой, не надевает тапочки, не садится после трудного дня у телевизора – у него уже давно нет дома. На первый взгляд, он кажется чудаком. А если присмотреться, в его поиске гармонии можно обнаружить больше здравого смысла, чем в погоне людей за призрачным счастьем. За внешней стойкостью и бескомпромиссностью художника Валерия Ляшкевича не сразу удается разглядеть драму бесконечно одинокого человека. Сменяются времена года, проходят мимо люди и судьбы, а его жизнь замерла на перекрестке.
качество: WEBRip
формат: mp4
Видео: AVC, 1136х640, 16:9, 2900 Kbps, 30 fps
Аудио: AAC, 100 Kbps, 48.0 KHz, 2 ch

MediaInfo

Общее
Полное имя : F:\Перекресток.mp4
Формат : MPEG-4
Профиль формата : Base Media
Идентификатор кодека : isom
Размер файла : 1,13 Гбайт
Продолжительность : 54 м.
Режим общего битрейта : Переменный
Общий поток : 2970 Кбит/сек
Программа кодирования : Lavf54.63.104
Видео
Идентификатор : 1
Формат : AVC
Формат/Информация : Advanced Video Codec
Профиль формата : Baseline@L3.1
Параметр CABAC формата : Нет
Параметр ReFrames формата : 1 кадр
Идентификатор кодека : avc1
Идентификатор кодека/Информация : Advanced Video Coding
Продолжительность : 54 м.
Битрейт : 2900 Кбит/сек
Ширина : 1136 пикселей
Высота : 640 пикселей
Соотношение сторон : 16:9
Режим частоты кадров : Переменный
Частота кадров : 21,136 кадров/сек
Минимальная частота кадров : 10,000 кадров/сек
Максимальная частота кадров : 30,000 кадров/сек
Цветовое пространство : YUV
Субдискретизация насыщенности : 4:2:0
Битовая глубина : 8 бит
Тип развёртки : Прогрессивная
Бит/(Пиксели*Кадры) : 0.189
Размер потока : 1,09 Гбайт (96%)
Библиотека кодирования : x264 core 129
Настройки программы : cabac=0 / ref=1 / deblock=1:0:0 / analyse=0x1:0x111 / me=hex / subme=6 / psy=1 / psy_rd=1.00:0.00 / mixed_ref=0 / me_range=16 / chroma_me=1 / trellis=0 / 8x8dct=0 / cqm=0 / deadzone=21,11 / fast_pskip=1 / chroma_qp_offset=-2 / threads=2 / lookahead_threads=1 / sliced_threads=0 / nr=0 / decimate=1 / interlaced=0 / bluray_compat=0 / constrained_intra=0 / bframes=0 / weightp=0 / keyint=250 / keyint_min=25 / scenecut=40 / intra_refresh=0 / rc_lookahead=40 / rc=abr / mbtree=1 / bitrate=2900 / ratetol=1.0 / qcomp=0.60 / qpmin=10 / qpmax=51 / qpstep=4 / ip_ratio=1.41 / aq=1:1.00
Аудио
Идентификатор : 2
Формат : AAC
Формат/Информация : Advanced Audio Codec
Профиль формата : LC
Идентификатор кодека : 40
Продолжительность : 54 м.
Duration_FirstFrame : 64 мс.
Вид битрейта : Переменный
Битрейт : 100 Кбит/сек
Максимальный битрейт : 320 Кбит/сек
Каналы : 2 канала
Расположение каналов : Front: L R
Частота : 48,0 КГц
Метод сжатия : С потерями
Размер потока : 39,1 Мбайт (3%)

Скриншоты

[teatrix.ru].t22857.torrent 
Торрент: Зарегистрирован [ 2016-03-21 00:40 ] · 3830978F5CCC6C442FB42938F7491B64EFAC59EB

Скачать .torrent

Скачать

12 KB

Статус: проверено
Скачан: 2 раз
Размер: 1.13 GB
terms.php



Быстрый ответ

Имя:

      
Для отправки сообщений необходимо включить JavaScript
Показать сообщения:    

Текущее время: 08-Дек 03:10

Часовой пояс: UTC + 3


Вы можете начинать темы
Вы можете отвечать на сообщения
Вы не можете редактировать свои сообщения
Вы не можете удалять свои сообщения
Вы не можете голосовать в опросах
Вы не можете прикреплять файлы к сообщениям
Вы можете скачивать файлы