The Original Three Tenors Concert (1994) / 2oй концерт / Три тенора: Каррерас, Доминго и Паваротти [1994, Concert, DVDRip-AVC]


Статистика раздачи [Обновить пиров]
Размер:  2.81 GB   |    Зарегистрирован:  8 месяцев 14 дней   |    Скачан:  1 раз

Полного источника не было: 1 месяц 7 дней

 
   
 
 
 

[Цитировать]

2oй концерт / Три тенора - Каррерас, Доминго и Паваротти

1 концерт
Дата/Год выпуска: 1994
Вид спорта: Концерт
Место проведения: 'Термы Каракаллы' (Красно-кирпичные руины Caracalla, юго-восток от центра древнего Рима.
Язык комментариев: Оригинал
Продолжительность: 01:51:06
Исполнители:
Los Angeles Philharmonic
Los Angeles Music Center Opera Chorus
Zubin Mehta
Описание:
Концерт The Three Tenors in Concert 1994 является концертным альбомом Хосе Каррераса, Пласидо Доминго и Лучано Паваротти с дирижером Зубин Мехта. Альбом был записан на 16 июля 1994 года в Лос-Анджелесе вместе с Лос-Анджелеским филармоническим оркестром. По оценкам концерт слушали приблизительно 1,3 млрд зрителей по телевизору во всем мире.

Треклист

The Star-spangled Banner
1. Leonard Bernstein - Candide - "Overture"
2. Jules Massenet - Le Cid - "O Souverain! O Juge! O Pere!" (Carreras)
3. Giuseppe Verdi - Luise Miller- "Quando le sere al placido" (Domingo)
4. Jules Massenet - Werther - "Pourquoi me reveiller" (Pavarotti)
5. Rodgers - Spring is here - "With a Song in my Heart" (Carreras)
6. Agustin Lara - Granada, arr. Hayes (Domingo)
7. Ernesto de Curtis - Non ti scordar di me (Carreras)
8. A Tribute to Hollywood - (Medley arr. & orch. by Lalo Schifrin) - (3 Tenors)
My Way.
Moon River.
Because.
Singing' in the Rain
9. Hector Berlioz - La Damnation de Faust - "Marche hongroise" (Rakoczy) -
10. Ernesto de Curtis - "Tu, ca nun chiagne", arr. Lozi (Carreras)
11. Morena-Torroba - "Amor, vida de mi vida" (Domingo)
12. Franz Schubert - "Ave Maria", arr. Schifrin (Pavarotti)
13. Giacomo Puccini - Tosca - "E lucevan le stelle" (Carreras)
14. Ruggiero Leoncavallo - Pagliacci - "Vesti la giubba" (Domingo)
15. Giacomo Puccini - Turandot - "Nessun Dorma" (Pavarotti)
16. Around the World - (Medley arr. & orch. by Lalo Schifrin) - (3 Tenors)
17.
America
All ask of you
Funiculu, funicula
Sous les ponts de Paris
18.
Brazil
By my love
Marechiare
Lippen sweigen
19.
Santa Lucia luntana
Those were the days
Te quiero dijisle
Encores the 3 Tenors:
18. Giuseppe Verdi - Rigoletto - "La Donna e mobile"
19. Giuseppe Verdi - La Traviata - "Libiamo nelieti calici" (Brindisi)
20. Giacomo Puccini - Turandot - "Nessun Dorma"
Качество: DVDRip-AVC
Формат: MKV
Видео кодек: H.264
Аудио кодек: AC3
Видео: 702x574 (-> 702x574) at 25.000 fps, MPEG-4 AVC (High@L3.1), 2 079 Kbps
Аудио: PCM | 48 kHz | 2.0, 1536 kbp |

MI

General
Unique ID : 224128334142472861786217702491863207294 (0xA89D8C08EABC5E56A09BE7E207614D7E)
Complete name : 2.Carreras.Domingo.Pavarott_Mehta.1994.DVDRip-AVC.mkv
Format : Matroska
Format version : Version 4 / Version 2
File size : 2.81 GiB
Duration : 1h 51mn
Overall bit rate : 3 617 Kbps
Encoded date : UTC 2016-01-22 18:33:23
Writing application : mkvmerge v8.3.0 ('Over the Horizon') 64bit
Writing library : libebml v1.3.1 + libmatroska v1.4.2
Video
ID : 1
Format : AVC
Format/Info : Advanced Video Codec
Format profile : High@L3.1
Format settings, CABAC : Yes
Format settings, ReFrames : 11 frames
Codec ID : V_MPEG4/ISO/AVC
Duration : 1h 51mn
Bit rate : 2 079 Kbps
Width : 702 pixels
Height : 574 pixels
Display aspect ratio : 4:3
Original display aspect rat : 4:3
Frame rate mode : Constant
Frame rate : 25.000 fps
Color space : YUV
Chroma subsampling : 4:2:0
Bit depth : 8 bits
Scan type : Progressive
Bits/(Pixel*Frame) : 0.206
Stream size : 1.61 GiB (57%)
Writing library : x264 core 146 r2538 121396c
Encoding settings : cabac=1 / ref=11 / deblock=1:-2:-2 / analyse=0x3:0x133 / me=umh / subme=11 / psy=1 / psy_rd=1.10:0.05 / mixed_ref=1 / me_range=32 / chroma_me=1 / trellis=2 / 8x8dct=1 / cqm=0 / deadzone=21,11 / fast_pskip=0 / chroma_qp_offset=-3 / threads=6 / lookahead_threads=1 / sliced_threads=0 / nr=0 / decimate=1 / interlaced=0 / bluray_compat=0 / constrained_intra=0 / bframes=8 / b_pyramid=2 / b_adapt=2 / b_bias=0 / direct=1 / weightb=1 / open_gop=0 / weightp=2 / keyint=250 / keyint_min=25 / scenecut=40 / intra_refresh=0 / rc=crf / mbtree=0 / crf=18.0 / qcomp=0.65 / qpmin=0 / qpmax=69 / qpstep=4 / ip_ratio=1.40 / pb_ratio=1.30 / aq=3:0.80
Language : Italian
Default : Yes
Forced : No
Color range : Full
Color primaries : BT.601 NTSC
Transfer characteristics : BT.601
Matrix coefficients : BT.601
Audio
ID : 2
Format : PCM
Codec ID : A_PCM/INT/LIT
Duration : 1h 51mn
Bit rate mode : Constant
Bit rate : 1 536 Kbps
Channel(s) : 2 channels
Sampling rate : 48.0 KHz
Frame rate : 32.000 fps (1500 spf)
Bit depth : 16 bits
Stream size : 1.19 GiB (42%)
Title : PCM | 48 kHz | 16bit | 2.0, 1536 kbps; Original
Language : Italian
Default : Yes
Forced : No

Log x264

x264 [info]: profile High, level 3.1
x264 [info]: frame I:913 Avg QP:17.56 size: 50611
x264 [info]: frame P:34688 Avg QP:18.78 size: 21651
x264 [info]: frame B:131034 Avg QP:21.95 size: 7135
x264 [info]: consecutive B-frames: 1.0% 1.1% 5.7% 21.0% 30.7% 33.6% 5.9% 0.7% 0.4%
x264 [info]: mb I I16..4: 3.5% 77.8% 18.7%
x264 [info]: mb P I16..4: 0.9% 15.8% 2.1% P16..4: 28.2% 33.9% 14.2% 2.5% 0.2% skip: 2.1%
x264 [info]: mb B I16..4: 0.2% 1.5% 0.2% B16..8: 29.7% 19.8% 3.3% direct:11.9% skip:33.4% L0:35.2% L1:39.5% BI:25.2%
x264 [info]: 8x8 transform intra:82.8% inter:46.8%
x264 [info]: coded y,uvDC,uvAC intra: 86.7% 86.6% 63.9% inter: 25.9% 25.4% 4.8%
x264 [info]: i16 v,h,dc,p: 35% 16% 5% 44%
x264 [info]: i8 v,h,dc,ddl,ddr,vr,hd,vl,hu: 22% 10% 15% 6% 6% 10% 6% 11% 13%
x264 [info]: i4 v,h,dc,ddl,ddr,vr,hd,vl,hu: 24% 13% 9% 6% 9% 12% 8% 9% 10%
x264 [info]: i8c dc,h,v,p: 34% 25% 24% 16%
x264 [info]: Weighted P-Frames: Y:5.3% UV:4.0%
x264 [info]: ref P L0: 44.5% 9.1% 22.9% 5.3% 5.3% 3.1% 3.4% 1.5% 1.7% 1.3% 1.6% 0.2% 0.0%
x264 [info]: ref B L0: 81.1% 12.2% 2.8% 1.3% 0.8% 0.6% 0.5% 0.3% 0.2% 0.1%
x264 [info]: ref B L1: 94.5% 5.5%
x264 [info]: kb/s:2078.95

P.S.: Приятного прослушивания! . Концерт, к релизу которого я шел 15 лет.
[teatrix.ru].t22858.torrent 
Торрент: Зарегистрирован [ 2016-03-21 00:39 ] · 590655E3E15CF10E87F5F49324323DEDEAF4ACEC

Скачать .torrent

Скачать

15 KB

Статус: проверено
Скачан: 1 раз
Размер: 2.81 GB
terms.php



Быстрый ответ

Имя:

      
Для отправки сообщений необходимо включить JavaScript
Показать сообщения:    

Текущее время: 04-Дек 02:55

Часовой пояс: UTC + 3


Вы можете начинать темы
Вы можете отвечать на сообщения
Вы не можете редактировать свои сообщения
Вы не можете удалять свои сообщения
Вы не можете голосовать в опросах
Вы не можете прикреплять файлы к сообщениям
Вы можете скачивать файлы