Легенды белорусской эстрады (Дмитрий Симаго) [Беларусь, Белоруссия, 2015, Документальный, DVB-AVC]


Статистика раздачи [Обновить пиров]
Размер:  4.59 GB   |    Зарегистрирован:  8 месяцев 17 дней   |    Скачан:  0 раз

Полного источника не было: Никогда

 
   
 
 
 

[Цитировать]

Легенды белорусской эстрады
Год выпуска: 2015
Страна: Республика Беларусь
Жанр: Документальный
Продолжительность: ~00:26:00*10
Перевод: Не требуется
Режиссер: Дмитрий Симаго
Телеканал: Беларусь 3
Описание: "Легенды белорусской эстрады" - документальный цикл передач про знаменитых, любимых, непревзойденных поэтов, композиторов, артистов которые прославили культуру Беларуси в веках.
Благодарность: исходник для данной раздачи, записан с цифрового наземного канала, т.е. DVB-Т
Запись потока *.ts с наземного цифрового телеканала "Беларусь 3", ремукс в *.mkv программой VideoReDo.
Качество видео: DVB-AVC
Формат видео: MKV
Видео кодек: H.264
Аудио кодек: MP2
Видео: AVC (H264), 720x576 (4:3), 25 fps, 2 207 Kbps
Аудио: MP2, 256 kbps, 2 channels, 48 kHz
Сэмпл: http://multi-up.com/1086599

Список выпусков/серий

001-Я вернусь... В.Вуячич (2015)
002-Наследие Игоря Лученка (2015)
003-О, сцена, тебе я верна... Наталия Гайда (2015)
004-Любви прощальный бал. ВИА Верасы (2015)
005-Романс о влюбленном Яков Науменко (2015)
006-Последний крик Песняра. В.Мулявин (2015)
007-Чаровницы мира. ВИА Чаровницы (2015)
008-Девушка с гитарой. Н.Микулич (2015)
009-Останься со мною... ВИА Сябры (2015)
010-Музыка звёзд. Тамара Раевская (2015)

MediaInfo

General
Unique ID : 211675813923526470080299729747280994741 (0x9F3F4762F6335475A0CD1E5D8A4D21B5)
Complete name : D:\Новая земля 2\001 Документальный фильмы\Личности\Легенды белорусской эстрады\Легенды белорусской эстрады (2015)\ЛБЭ-001-Я вернусь... В.Вуячич (2015).mkv
Format : Matroska
Format version : Version 2
File size : 472 MiB
Duration : 26mn 15s
Overall bit rate : 2 513 Kbps
Writing application : Lavf52.64.2
Writing library : Lavf52.64.2
Video
ID : 1
Format : AVC
Format/Info : Advanced Video Codec
Format profile : Main@L3.0
Format settings, CABAC : Yes
Format settings, ReFrames : 4 frames
Format settings, GOP : M=4, N=24
Codec ID : V_MPEG4/ISO/AVC
Duration : 26mn 15s
Bit rate : 2 207 Kbps
Width : 720 pixels
Height : 576 pixels
Display aspect ratio : 4:3
Original display aspect ratio : 4:3
Frame rate mode : Constant
Frame rate : 25.000 fps
Standard : PAL
Color space : YUV
Chroma subsampling : 4:2:0
Bit depth : 8 bits
Scan type : MBAFF
Scan order : Top Field First
Bits/(Pixel*Frame) : 0.213
Stream size : 415 MiB (88%)
Default : Yes
Forced : No
Color primaries : BT.601 PAL
Transfer characteristics : BT.470 System B, BT.470 System G
Matrix coefficients : BT.601
Color range : Limited
Audio
ID : 2
Format : MPEG Audio
Format version : Version 1
Format profile : Layer 2
Codec ID : A_MPEG/L2
Codec ID/Hint : MP2
Duration : 26mn 15s
Bit rate mode : Constant
Bit rate : 256 Kbps
Channel(s) : 2 channels
Sampling rate : 48.0 KHz
Compression mode : Lossy
Stream size : 48.1 MiB (10%)
Language : English
Default : Yes
Forced : No
[teatrix.ru].t22860.torrent 
Торрент: Зарегистрирован [ 2016-03-21 00:39 ] · 2FC3C71E6DFEC28216E3598A77AFC182047C8CE8

Скачать .torrent

Скачать

25 KB

Статус: проверено
Скачан: 0 раз
Размер: 4.59 GB
terms.php



Быстрый ответ

Имя:

      
Для отправки сообщений необходимо включить JavaScript
Показать сообщения:    

Текущее время: 07-Дек 23:21

Часовой пояс: UTC + 3


Вы можете начинать темы
Вы можете отвечать на сообщения
Вы не можете редактировать свои сообщения
Вы не можете удалять свои сообщения
Вы не можете голосовать в опросах
Вы не можете прикреплять файлы к сообщениям
Вы можете скачивать файлы