Луи де Фюнес - Человек оркестр (Татьяна Варданян) [2014, документальный, биографический, DVB]


Статистика раздачи [Обновить пиров]
Размер:  1.1 GB   |    Зарегистрирован:  8 месяцев 21 день   |    Скачан:  0 раз

Полного источника не было: Никогда

 
   
 
 
 

[Цитировать]

Луи де Фюнес
Человек оркестр- Дата/Год выпуска: 2014
Страна: Россия
Жанр: документальный, биографический
Продолжительность: 00:50:01
Перевод: Не требуется
Русские субтитры: нетРежиссер: Татьяна Варданян
Телеканал: Время: далекое и близкое
Описание: На экраны кинотеатров СССР Луи де Фюнес ворвался в захватывающем трехсерийном триллере "Фантомас". Он играл антипода Фантомаса – комиссара Жюва. В этой картине было все и сразу: роскошь и нереальный для нас бытовой комфорт, красивые и беззаботные мужчины и женщины, любовь без ЗАГСа, погони и пьянящее ощущение свободы, когда герой делает только то, что хочет. Зрители заходились от восторга, когда на экране появлялась парочка плутов, один из которых изображал властелина мира, а второй считал себя богом сыска. Луи де Фюнес, вернее, комиссар Жюв мгновенно стал всеобщим любимцем. Кинокритики были единодушны: в мировом кино появился гениальный комик… (анонс "Первого канала")
Доп. информация: Eutelsat 36B (W7) DVB-S

качество: DVB
формат: MKV
Видео: MPEG Video 2, 720x576 (4:3), 25 fps, ~2898 kbps avg, 0.280 bit/pixel
Аудио: MPEG Audio 2, 2 ch, 48 kHz, 192 kbps

Информация по редактированию

Topfield SRP-2410 – запись спутниковой трансляции DVB-S (.rec)
ProjectX 0.91.0.10 - разбор контейнера, удаление рекламы и доп. информации
MKVToolNix GUI 8.8.0 – сборка в контейнер MKV
MkvTagger – редактирование тегов

MediaInfo

Общее
Уникальный идентификатор : 211287023401568613367996281507407464757 (0x9EF46688AC176B2C83F0A0320ECC0935)
Полное имя : F:\My Torrents 3\[apreder]Louis_de_Funes_L'homme_orchestre(2014)DVB.mkv
Формат : Matroska
Версия формата : Version 2
Размер файла : 1,10 Гбайт
Продолжительность : 50 м.
Режим общего битрейта : Переменный
Общий поток : 3153 Кбит/сек
Название фильма : Луи де Фюнес - Человек оркестр
Дата выпуска : 2014-00-00
Дата кодирования : UTC 2016-01-28 16:21:02
Программа кодирования : mkvmerge v8.8.0 ('Wind at my back') 64bit
Библиотека кодирования : libebml v1.3.3 + libmatroska v1.4.4
Обложка : Yes
Attachments : cover.jpg / cover_small.jpg
DIRECTOR : Татьяна Варданян
GENRE : Documentary
KEYWORDS : rutracker.org
LAW_RATING : 12+
Видео
Идентификатор : 1
Формат : MPEG Video
Версия формата : Version 2
Профиль формата : Main@Main
Параметр BVOP формата : Да
Параметр матрицы формата : Выборочная
Параметр GOP формата : Variable
Format_Settings_PictureStructure : Frame
Идентификатор кодека : V_MPEG2
Идентификатор кодека/Информация : MPEG 1 or 2 Video
Продолжительность : 50 м.
Вид битрейта : Переменный
Битрейт : 2898 Кбит/сек
Ширина : 720 пикселей
Высота : 576 пикселей
Соотношение сторон : 4:3
Режим частоты кадров : Постоянный
Частота кадров : 25,000 кадров/сек
Стандарт вещания : PAL
Цветовое пространство : YUV
Субдискретизация насыщенности : 4:2:0
Битовая глубина : 8 бит
Тип развёртки : Чересстрочная
Порядок развёртки : Верхнее поле первое
Метод сжатия : С потерями
Бит/(Пиксели*Кадры) : 0.280
Временной код первого кадра : 00:00:00:00
Оригинал временного кода : Group of pictures header
Размер потока : 1,01 Гбайт (92%)
Default : Да
Forced : Нет
Аудио
Идентификатор : 2
Формат : MPEG Audio
Версия формата : Version 1
Профиль формата : Layer 2
Идентификатор кодека : A_MPEG/L2
Идентификатор кодека/Подсказка : MP2
Продолжительность : 50 м.
Вид битрейта : Постоянный
Битрейт : 192 Кбит/сек
Каналы : 2 канала
Частота : 48,0 КГц
Метод сжатия : С потерями
Размер потока : 68,7 Мбайт (6%)
Язык : Russian
Default : Да
Forced : Нет

Скриншоты


Резервные скриншоты


-
[teatrix.ru].t22861.torrent 
Торрент: Зарегистрирован [ 2016-03-21 00:39 ] · 838158BFA23C119FB7136A9C5B1397B2CC08CEF8

Скачать .torrent

Скачать

12 KB

Статус: проверено
Скачан: 0 раз
Размер: 1.1 GB
terms.php



Быстрый ответ

Имя:

      
Для отправки сообщений необходимо включить JavaScript
Показать сообщения:    

Текущее время: 11-Дек 16:53

Часовой пояс: UTC + 3


Вы можете начинать темы
Вы можете отвечать на сообщения
Вы не можете редактировать свои сообщения
Вы не можете удалять свои сообщения
Вы не можете голосовать в опросах
Вы не можете прикреплять файлы к сообщениям
Вы можете скачивать файлы