Не забывай меня / Vergiss mein nicht / Forget Me Not (Давид Зифекинг / David Sieveking) [2012, документальный, DVB] DVO (Глагол)


Статистика раздачи [Обновить пиров]
Размер:  1.6 GB   |    Зарегистрирован:  8 месяцев 15 дней   |    Скачан:  1 раз

Полного источника не было: 2 месяца 29 дней

 
   
 
 
 

[Цитировать]

Не забывай меня
Vergiss mein nicht- Дата/Год выпуска: 2012
Страна: Германия
Жанр: документальный
Продолжительность: 01:26:10
Перевод: Профессиональный (двухголосый закадровый)
Доп. инфо о переводе: Студия звукозаписи "Глагол", текст читали Светлана Кузнецова, Дмитрий Оргин
Русские субтитры: нет
Режиссер: Давид Зифекинг / David Sieveking
Телеканал: 24 ДОК
Описание: В основе сюжета — семейная хроника режиссера Дэвида Зифекинга, который рассказывает трогательную интимную историю своей матери, страдающей болезнью Альцгеймера. Болезнь не только объединяет семью, но и проливает свет на неизвестные факты. Зифекинг восстанавливает юность своих родителей по фотографиям 1970-х, когда они принимали участие в борьбе за освобождение чилийских заключенных во время диктатуры Пиночета и состояли в свободных отношениях. Истории из молодости становятся вспышками в памяти. В следующий момент женщина перестает узнавать человека напротив, принимая своего сына за мужа.
Доп. информация: Eutelsat 36B (W7) DVB-S
Награды: приз "Недели критики" Locarno International Film Festival 2012; номинация на "Золотую медаль" за лучший документальный фильм German Film Awards 2013; номинация на лучший монтаж документального фильма Film+ 2013; номинация на лучший документальный фильм German Film Critics Association Awards 2014.

качество: DVB
формат: MKV
Видео: MPEG Video 2, 720x576 (4:3), 25 fps, ~2416 kbps avg, 0.233 bit/pixel
Аудио: MPEG Audio 2, 2 ch, 48 kHz, 192 kbps

Информация по редактированию

Topfield SRP-2410 – запись спутниковой трансляции DVB-S (.rec)
ProjectX 0.91.0.10 - разбор контейнера, удаление рекламы и доп. информации
MKVToolNix GUI 8.8.0 – сборка в контейнер MKV
MkvTagger – редактирование тегов

MediaInfo

Общее
Уникальный идентификатор : 251701029847725960761112953994014142332 (0xBD5BDAE40305DCC1AA38E6365E70AF7C)
Полное имя : F:\My Torrents 3\[apreder]Vergiss_mein_nicht(2012)DVB.mkv
Формат : Matroska
Версия формата : Version 2
Размер файла : 1,60 Гбайт
Продолжительность : 1 ч. 26 м.
Режим общего битрейта : Переменный
Общий поток : 2661 Кбит/сек
Название фильма : Vergiss mein nicht
Дата выпуска : 2013-01-31
Дата кодирования : UTC 2016-01-29 13:06:54
Программа кодирования : mkvmerge v8.8.0 ('Wind at my back') 64bit
Библиотека кодирования : libebml v1.3.3 + libmatroska v1.4.4
Обложка : Yes
Attachments : cover.jpg / cover_small.jpg
DIRECTOR : David Sieveking
GENRE : Documentary
IMDB : tt2389530
KEYWORDS : rutracker.org
LAW_RATING : 16+
Видео
Идентификатор : 1
Формат : MPEG Video
Версия формата : Version 2
Профиль формата : Main@Main
Параметр BVOP формата : Да
Параметр матрицы формата : Выборочная
Параметр GOP формата : M=3, N=36
Format_Settings_PictureStructure : Frame
Идентификатор кодека : V_MPEG2
Идентификатор кодека/Информация : MPEG 1 or 2 Video
Продолжительность : 1 ч. 26 м.
Вид битрейта : Переменный
Битрейт : 2416 Кбит/сек
Ширина : 720 пикселей
Высота : 576 пикселей
Соотношение сторон : 4:3
Режим частоты кадров : Постоянный
Частота кадров : 25,000 кадров/сек
Стандарт вещания : PAL
Цветовое пространство : YUV
Субдискретизация насыщенности : 4:2:0
Битовая глубина : 8 бит
Тип развёртки : Чересстрочная
Порядок развёртки : Верхнее поле первое
Метод сжатия : С потерями
Бит/(Пиксели*Кадры) : 0.233
Временной код первого кадра : 00:00:00:00
Оригинал временного кода : Group of pictures header
Размер потока : 1,45 Гбайт (91%)
Default : Да
Forced : Нет
Аудио
Идентификатор : 2
Формат : MPEG Audio
Версия формата : Version 1
Профиль формата : Layer 2
Идентификатор кодека : A_MPEG/L2
Идентификатор кодека/Подсказка : MP2
Продолжительность : 1 ч. 26 м.
Вид битрейта : Постоянный
Битрейт : 192 Кбит/сек
Каналы : 2 канала
Частота : 48,0 КГц
Метод сжатия : С потерями
Размер потока : 118 Мбайт (7%)
Язык : Russian
Default : Да
Forced : Нет

Скриншоты


Резервные скриншоты


-
[teatrix.ru].t22863.torrent 
Торрент: Зарегистрирован [ 2016-03-21 00:39 ] · 6F7CA4E4996A8909B3855DEE4BF89C9E2B5FD99E

Скачать .torrent

Скачать

16 KB

Статус: проверено
Скачан: 1 раз
Размер: 1.6 GB
terms.php



Быстрый ответ

Имя:

      
Для отправки сообщений необходимо включить JavaScript
Показать сообщения:    

Текущее время: 05-Дек 19:39

Часовой пояс: UTC + 3


Вы можете начинать темы
Вы можете отвечать на сообщения
Вы не можете редактировать свои сообщения
Вы не можете удалять свои сообщения
Вы не можете голосовать в опросах
Вы не можете прикреплять файлы к сообщениям
Вы можете скачивать файлы