[TR24][OF] Georg Philipp Telemann - Recorder Sonatas and Fantasias (Pamela Thorby) - 2015 (Chamber, Baroque, Classical)


Статистика раздачи [Обновить пиров]
Размер:  2.15 GB   |    Зарегистрирован:  8 месяцев 21 день   |    Скачан:  0 раз

Полного источника не было: Никогда

 
   
 
 
 

[Цитировать]

Georg Philipp Telemann - Recorder Sonatas and Fantasias
Формат записи/Источник записи: [TR24][OF]
Наличие водяных знаков: Нет
Год издания/переиздания диска: 2015
Жанр: Chamber, Baroque, Classical
Издатель(лейбл): Linn Records
Продолжительность: 01:50:56
Исполнитель:
Pamela Thorby (recorder),
Peter Whelan (bassoon),
Alison McGillivray (cello),
Elizabeth Kenny (archlute),
Marcin Swiatkiewicz (harpsichord, organ).
Recorded at National Centre for Early Music, York, UK, 29–30 April (sonatas) and 24–25 July (fantasias) 2014.
Контейнер: FLAC (*.flac)
Тип рипа: tracks
Разрядность: 24/96
Количество каналов: 2.0
Источник: Hyperion-Records

DR-Report

foobar2000 1.3.6 / Замер динамического диапазона (DR) 1.1.1
Дата отчёта: 2016-01-29 19:27:17
--------------------------------------------------------------------------------
Анализ: Pamela Thorby / Telemann: Recorder Sonatas and Fantasias
--------------------------------------------------------------------------------
DR Пики RMS Продолжительность трека
--------------------------------------------------------------------------------
DR12 -4.55 дБ -19.85 дБ 2:30 01-Sonata in C Major, TWV 41:C5: I. Adagio - Allegro - Adagio - Allegro
DR10 -5.43 дБ -19.29 дБ 1:48 02-Sonata in C Major, TWV 41: C5: II. Larghetto
DR12 -4.76 дБ -19.80 дБ 3:23 03-Sonata in C Major, TWV 41:C5: III. Vivace
DR11 -5.57 дБ -20.52 дБ 2:12 04-Sonata in B-Flat Major, TWV 42:B4: I. Dolce
DR12 -4.70 дБ -20.14 дБ 1:40 05-Sonata in B-Flat Major, TWV 42:B4: II. Vivace
DR10 -7.51 дБ -21.64 дБ 2:32 06-Sonata in B-Flat Major, TWV 42:B4: III. Siciliana
DR12 -5.14 дБ -20.54 дБ 1:54 07-Sonata in B-Flat Major, TWV 42:B4: IV. Vivace
DR10 -4.47 дБ -18.75 дБ 2:19 08-Sonata in F Minor, TWV 41:f1: I. Triste
DR11 -4.61 дБ -18.44 дБ 4:11 09-Sonata in F Minor, TWV 41:f1: II. Allegro
DR9 -5.80 дБ -19.67 дБ 1:59 10-Sonata in F Minor, TWV 41:f1: III. Andante
DR11 -5.69 дБ -20.06 дБ 2:32 11-Sonata in F Minor, TWV 41:f1: IV. Vivace
DR9 -5.34 дБ -17.82 дБ 1:25 12-Sonata in B-Flat Major, TWV 41:B3: I. Largo
DR12 -3.83 дБ -19.62 дБ 2:12 13-Sonata in B-Flat Major, TWV 41:B3: II. Allegro
DR10 -3.19 дБ -18.34 дБ 1:21 14-Sonata in B-Flat Major, TWV 41:B3: III. Largo
DR10 -5.95 дБ -19.64 дБ 2:05 15-Sonata in B-Flat Major, TWV 41:B3: IV. Vivace
DR9 -6.48 дБ -20.31 дБ 1:52 16-Sonata in D Minor, TWV 41:d4: I. Affettuoso
DR11 -3.80 дБ -18.84 дБ 3:22 17-Sonata in D Minor, TWV 41:d4: II. Presto
DR7 -6.98 дБ -19.81 дБ 0:53 18-Sonata in D Minor, TWV 41:d4: III. Grave
DR12 -4.61 дБ -20.06 дБ 3:41 19-Sonata in D Minor, TWV 41:d4: IV. Allegro
DR11 -5.45 дБ -19.08 дБ 2:33 20-Sonata in F Major TWV 41:F2: I. Vivace
DR9 -3.25 дБ -17.83 дБ 1:49 21-Sonata in F Major TWV 41:F2: II. Largo
DR12 -0.86 дБ -19.05 дБ 1:53 22-Sonata in F Major TWV 41:F2: III. Allegro
DR10 -4.12 дБ -19.48 дБ 1:35 23-Sonata in C Major TWV 41:C2: I. Cantabile
DR12 -2.30 дБ -18.79 дБ 2:01 24-Sonata in C Major TWV 41:C2: II. Allegro
DR10 -5.04 дБ -19.51 дБ 1:41 25-Sonata in C Major TWV 41:C2: III. Grave
DR12 -2.34 дБ -19.40 дБ 2:18 26-Sonata in C Major TWV 41:C2: IV. Vivace
DR9 -5.32 дБ -19.27 дБ 2:08 27-Fantasia No. 1 in A Major TWV 40:2 (Transposed to C Major): I. Vivace - Adagio - Allegro - Adagio
DR8 -9.38 дБ -21.03 дБ 1:06 28-Fantasia No. 1 in A Major TWV 40:2 (Transposed to C Major): II. Allegro
DR6 -5.37 дБ -21.57 дБ 0:48 29-Fantasia No. 2 in A Minor TWV 40:3 (Transposed to C Minor): I. Grave
DR10 -7.36 дБ -21.44 дБ 1:16 30-Fantasia No. 2 in A Minor, TWV 40:3 (Transposed to C Minor): II. Vivace
DR10 -6.20 дБ -20.25 дБ 2:43 31-Fantasia No. 2 in A Minor, TWV 40:3 (Transposed to C Minor): III. Adagio - Allegro
DR9 -5.41 дБ -19.43 дБ 2:17 32-Fantasia No. 3 in B Minor, TWV 40:4 (Transposed to D Minor): I. Largo - Vivace - Largo - Vivace
DR8 -7.84 дБ -20.97 дБ 1:44 33-Fantasia No. 3 in B Minor, TWV 40:4 (Transposed to D Minor): II. Allegro
DR9 -3.69 дБ -18.89 дБ 2:42 34-Fantasia No. 4 in B-Flat Major, TWV 40:5 (Transposed to D-Flat Major): I. Andante - Allegro
DR10 -3.61 дБ -19.47 дБ 1:13 35-Fantasia No. 4 in B-Flat Major, TWV 40:5 (Transposed to D-Flat Major): II. Presto
DR9 -4.37 дБ -18.49 дБ 1:13 36-Fantasia No. 5 in C Major, TWV 40:6 (Transposed to E-Flat Major): I. Presto - Largo - Presto - Largo
DR11 -5.59 дБ -20.37 дБ 1:26 37-Fantasia No. 5 in C Major, TWV 40:6 (Transposed to E-Flat Major): II. Allegro
DR10 -3.78 дБ -18.03 дБ 1:51 38-Fantasia No. 5 in C Major, TWV 40:6 (Transposed to E-Flat Major): III. Allegro
DR9 -4.72 дБ -18.51 дБ 2:40 39-Fantasia No. 6 in D Minor, TWV 40:7 (Transposed to F Minor): I. Dolce
DR10 -4.65 дБ -20.51 дБ 1:09 40-Fantasia No. 6 in D Minor, TWV 40:7 (Transposed to F Minor): II. Allegro
DR10 -6.02 дБ -19.64 дБ 1:05 41-Fantasia No. 6 in D Minor, TWV 40:7 (Transposed to F Minor): III. Spirituoso
DR10 -4.57 дБ -18.41 дБ 3:25 42-Fantasia No. 7 in D Major, TWV 40:8 (Transposed to G Major): I. Alla francese
DR10 -4.80 дБ -19.35 дБ 0:48 43-Fantasia No. 7 in D Major, TWV 40:8 (Transposed to G Major): II. Presto
DR8 -5.38 дБ -17.05 дБ 1:50 44-Fantasia No. 8 in E Minor, TWV 40:9 (Transposed to B-Flat Minor): I. Largo
DR9 -5.52 дБ -18.54 дБ 1:00 45-Fantasia No. 8 in E Minor, TWV 40:9 (Transposed to B-Flat Minor): II. Spirituoso
DR8 -6.37 дБ -18.99 дБ 1:25 46-Fantasia No. 8 in E Minor, TWV 40:9 (Transposed to B-Flat Minor): III. Allegro
DR8 -6.22 дБ -18.00 дБ 3:29 47-Fantasia No. 9 in E Major, TWV 40:10 (Transposed to B-Flat Major): I. Affettuoso
DR8 -6.85 дБ -18.68 дБ 1:05 48-Fantasia No. 9 in E Major, TWV 40:10 (Transposed to B-Flat Major): II. Allegro
DR5 -7.23 дБ -16.04 дБ 0:25 49-Fantasia No. 9 in E Major, TWV 40:10 (Transposed to B-Flat Major): III. Grave
DR9 -5.69 дБ -18.11 дБ 1:33 50-Fantasia No. 9 in E Major, TWV 40:10 (Transposed to B-Flat Major): IV. Vivace
DR10 -5.28 дБ -18.26 дБ 2:31 51-Fantasia No. 10 in F-Sharp Minor, TWV 40:11 (Transposed to B Minor): I. A tempo giusto
DR11 -5.35 дБ -18.99 дБ 0:59 52-Fantasia No. 10 in F-Sharp Minor, TWV 40:11 (Transposed to B Minor): II. Presto
DR8 -6.08 дБ -18.01 дБ 1:11 53-Fantasia No. 10 in F-Sharp Mino,r TWV 40:11 (Transposed to B Minor): III. Moderato
DR10 -5.83 дБ -21.42 дБ 2:16 54-Fantasia No. 11 in G Major, TWV 40:12: I. Allegro - Adagio - Vivace
DR9 -7.15 дБ -21.18 дБ 1:18 55-Fantasia No. 11 in G Major, TWV 40:12: II. Allegro
DR10 -6.23 дБ -21.42 дБ 2:48 56-Fantasia No. 12 in G Minor, TWV 40:13 (Transposed to A Minor): I. Grave - Allegro - Grave - Allegro - Dolce - Allegro
DR10 -5.84 дБ -18.51 дБ 2:17 57-Fantasia No. 12 in G Minor, TWV 40:13 (Transposed to A Minor): II. Presto
--------------------------------------------------------------------------------
Количество треков: 57
Реальные значения DR: DR10
Частота: 96000 Гц
Каналов: 2
Разрядность: 24
Битрейт: 2661 кбит/с
Кодек: FLAC
================================================================================

Треклист

Recorder Sonata in C Major, TWV 41:C5:
1. I. Adagio - Allegro - Adagio - Allegro
2. II. Larghetto
3. III. Vivace
Recorder Trio in B-Flat Major, TWV 42:B4 (Arr. for Recorder, Lute, Cello & Harpsichord):
4. I. Dolce
5. II. Vivace
6. III. Siciliana
7. IV. Vivace
Recorder Sonata in F Minor, TWV 41:F1:
8. I. Triste
9. II. Allegro
10. III. Andante
11. IV. Vivace
Recorder Sonata in B-Flat Major, TWV 41:B3:
12. I. Largo
13. II. Allegro
14 III. Largo
15. IV. Vivace
Recorder Sonata in D Minor, TWV 41:D4:
16. I. Affettuoso
17. II. Presto
18. III. Grave
19. IV. Allegro
Recorder Sonata in F Major, TWV 41:F2:
20. I. Vivace
21. II. Largo
22. III. Allegro
Recorder Sonata in C Major, TWV 41:C2:
23. I. Cantabile
24. II. Allegro
25. III. Grave
26. IV. Vivace
Fantasia No. 1 in A Major, TWV 40:2 (Arr. for Recorder in C Major):
27. I. Vivace - Adagio - Allegro
28. II. Allegro
Fantasia No. 2 in A Minor, TWV 40:3 (Arr. for Recorder in C Minor):
29. I. Grave
30. II. Vivace
31. III. Adagio - Allegro
Fantasia No. 3 in B Minor, TWV 40:4 (Arr. for Recorder in D Minor):
32. I. Largo - Vivace - Largo - Vivace
33. II. Allegro
Fantasia No. 4 in B-Flat Major, TWV 40:5 (Arr. for Recorder in D-Flat Major):
34. I. Andante - Allegro
35. II. Presto
Fantasia No. 5 in C Major, TWV 40:6 (Arr. for Recorder in E-Flat Major):
36. I. Presto - Largo - Presto - Largo
37. II. Allegro
38. III. Allegro
Fantasia No. 6 in D Minor, TWV 40:7 (Arr. for Recorder in F Minor):
39. I. Dolce
40. II. Allegro
41. III. Spirituoso
Fantasia No. 7 in D Major TWV 40:8 (Transposed to G Major):
42. I. Alla francese
43. II. Presto
Fantasia No. 8 in E Minor, TWV 40:9 (Arr. for Recorder in B-Flat Minor):
44. I. Largo
45. II. Spirituoso
46. III. Allegro
Fantasia No. 9 in E Major, TWV 40:10 (Arr. for Recorder in B-Flat Major):
47. I. Affettuoso
48. II. Allegro
49. III. Grave
50. IV. Vivace
Fantasia No. 10 in F-Sharp Minor, TWV 40:11 (Arr. for Recorder in B Minor):
51. I. A tempo giusto
52. II. Presto
53. III. Moderato
Fantasia No. 11 in G Major, TWV 40:12 (Arr. for Recorder):
54. I. Allegro - Adagio - Vivace
55. II. Allegro
Fantasia No. 12 in G Minor, TWV 40:13 (Arr. for Recorder in A Minor):
56. I. Grave - Allegro - Grave - Allegro - Dolce - Allegro
57. II. Presto
[teatrix.ru].t22864.torrent 
Торрент: Зарегистрирован [ 2016-03-21 00:39 ] · CE0FC4610E0CF6808AD4D6573F7791442A988E69

Скачать .torrent

Скачать

17 KB

Статус: проверено
Скачан: 0 раз
Размер: 2.15 GB
terms.php



Быстрый ответ

Имя:

      
Для отправки сообщений необходимо включить JavaScript
Показать сообщения:    

Текущее время: 11-Дек 09:09

Часовой пояс: UTC + 3


Вы можете начинать темы
Вы можете отвечать на сообщения
Вы не можете редактировать свои сообщения
Вы не можете удалять свои сообщения
Вы не можете голосовать в опросах
Вы не можете прикреплять файлы к сообщениям
Вы можете скачивать файлы