Летчица Светлана Капанина (Роман Кошиенко) [2011, документальный, TVRip]


Статистика раздачи [Обновить пиров]
Размер:  454 MB   |    Зарегистрирован:  8 месяцев 14 дней   |    Скачан:  0 раз

Полного источника не было: Никогда

 
   
 
 
 

[Цитировать]

Летчица Светлана Капанина
Дата/Год выпуска: 2011
Страна: Россия
Жанр: документальный
Продолжительность: 00:38:45
Перевод: Не требуется
Режиссер: Роман Кошиенко
Описание: Хрупкая, миниатюрная Светлана Капанина заставляет трепетать и содрогаться самые хладнокровные сердца. В Великобритании ее называют Сибирским Ангелом, в США сравнивают с Джеймсом Бондом. В небе прославленная россиянка творит чудеса. Лучший пилот столетия, 6-кратная абсолютная чемпионка мира по высшему пилотажу среди женщин и самая титулованная летчица за всю историю мировой авиации - все это бесстрашная и неутомимая Светлана Капанина. Вот уже более 15-ти лет ей нет равных за штурвалом легкого и маневренного СУ-26. О том, как посадить самолет без двигателя, воспитать двоих прекрасных детей и найти смысл жизни, знаменитая летчица поведала ведущей RTG TV Наталии Крыловой.
Сэмпл: http://sendfile.su/1199043
качество: TVRip
формат: AVI
Видео: XviD, 1500 Кбит/сек, 720 x 536 (1.343), 25.000 fps
Аудио: МР3, 128 Кбит/сек, 2 канала, 48,0 КГц

MediaInfo

Общее
Полное имя : T:\Мои раздачи\Летчица Светлана Капанина (2011)\Летчица Светлана Капанина (2011).avi
Формат : AVI
Формат/Информация : Audio Video Interleave
Размер файла : 454 Мбайт
Продолжительность : 38 м.
Общий поток : 1638 Кбит/сек
Программа кодирования : VirtualDubMod 1.5.10.3 | www.virtualdub-fr.org || (build 2550/release)
Библиотека кодирования : VirtualDubMod build 2550/release
Видео
Идентификатор : 0
Формат : MPEG-4 Visual
Профиль формата : Advanced Simple@L5
Параметр BVOP формата : 2
Параметр QPel формата : Нет
Параметр GMC формата : Без точки перехода
Параметр матрицы формата : Default (MPEG)
Идентификатор кодека : XVID
Идентификатор кодека/Подсказка : XviD
Продолжительность : 38 м.
Битрейт : 1500 Кбит/сек
Ширина : 720 пикселей
Высота : 536 пикселей
Соотношение сторон : 4:3
Частота кадров : 25,000 кадров/сек
Цветовое пространство : YUV
Субдискретизация насыщенности : 4:2:0
Битовая глубина : 8 бит
Тип развёртки : Прогрессивная
Метод сжатия : С потерями
Бит/(Пиксели*Кадры) : 0.155
Размер потока : 416 Мбайт (92%)
Библиотека кодирования : XviD 1.2.1 (UTC 2008-12-04)
Аудио
Идентификатор : 1
Формат : MPEG Audio
Версия формата : Version 1
Профиль формата : Layer 3
Идентификатор кодека : 55
Идентификатор кодека/Подсказка : MP3
Продолжительность : 38 м.
Вид битрейта : Постоянный
Битрейт : 128 Кбит/сек
Каналы : 2 канала
Частота : 48,0 КГц
Метод сжатия : С потерями
Размер потока : 35,5 Мбайт (8%)
Выравнивание : Соединение по промежуткам
Продолжительность промежутка : 40 мс. (1,00 видеокадр)
Время предзагрузки промежутка : 504 мс.
Библиотека кодирования : LAME3.99r
Настройки программы : -m s -V 4 -q 2 -lowpass 17 -b 128

Скриншоты

[teatrix.ru].t22865.torrent 
Торрент: Зарегистрирован [ 2016-03-21 00:39 ] · 547289BAA43A09DEC989D3E15C17F74590235331

Скачать .torrent

Скачать

18 KB

Статус: проверено
Скачан: 0 раз
Размер: 454 MB
terms.php



Быстрый ответ

Имя:

      
Для отправки сообщений необходимо включить JavaScript
Показать сообщения:    

Текущее время: 04-Дек 17:19

Часовой пояс: UTC + 3


Вы можете начинать темы
Вы можете отвечать на сообщения
Вы не можете редактировать свои сообщения
Вы не можете удалять свои сообщения
Вы не можете голосовать в опросах
Вы не можете прикреплять файлы к сообщениям
Вы можете скачивать файлы