Федор Юрчихин. Космонавт и фотограф (Юрий Давыдов) [2011, документальный, TVRip]


Статистика раздачи [Обновить пиров]
Размер:  449 MB   |    Зарегистрирован:  9 месяцев 30 дней   |    Скачан:  0 раз

Полного источника не было: Никогда

 
   
 
 
 

[Цитировать]

Федор Юрчихин. Космонавт и фотограф
Дата/Год выпуска: 2011
Страна: Россия
Жанр: документальный
Продолжительность: 00:38:23
Перевод: Не требуется
Режиссер: Юрий Давыдов
Описание: Федор Юрчихин - летчик-космонавт, Герой России. Совершил три космических полета. Провел в космосе больше года жизни - 369 суток, 20 часов и 14 минут, 4 раза выходил в открытое космическое пространство.
Еще во время своего первого полета он начал фотографировать Землю, а из последнего, который завершился в ноябре 2010 года привез 45000 снимков. Выставки портретов планеты Земля работы космонавта Федора Юрчихина проходят и в Музее Космонавтики, и в небольших галереях, и даже в Государственной Думе. Все они называются «Наш Дом-земля» и задача каждой - показать красоту и хрупкость нашей планеты
Сэмпл: http://sendfile.su/1199091
качество: TVRip
формат: AVI
Видео: XviD, 1497 Кбит/сек, 720 x 536 (1.343), 25.000 fps
Аудио: МР3, 128 Кбит/сек, 2 канала, 48,0 КГц

MediaInfo

Общее
Полное имя : T:\Мои раздачи\Федор Юрчихин. Космонавт и фотограф (2011)\Федор Юрчихин. Космонавт и фотограф (2011).avi
Формат : AVI
Формат/Информация : Audio Video Interleave
Размер файла : 449 Мбайт
Продолжительность : 38 м.
Общий поток : 1635 Кбит/сек
Программа кодирования : VirtualDubMod 1.5.10.2 (build 2540/release)
Библиотека кодирования : VirtualDubMod build 2540/release
Видео
Идентификатор : 0
Формат : MPEG-4 Visual
Профиль формата : Advanced Simple@L5
Параметр BVOP формата : 2
Параметр QPel формата : Да
Параметр GMC формата : 3 точки перехода
Параметр матрицы формата : Default (H.263)
Идентификатор кодека : XVID
Идентификатор кодека/Подсказка : XviD
Продолжительность : 38 м.
Битрейт : 1497 Кбит/сек
Ширина : 720 пикселей
Высота : 536 пикселей
Соотношение сторон : 4:3
Частота кадров : 25,000 кадров/сек
Цветовое пространство : YUV
Субдискретизация насыщенности : 4:2:0
Битовая глубина : 8 бит
Тип развёртки : Прогрессивная
Метод сжатия : С потерями
Бит/(Пиксели*Кадры) : 0.155
Размер потока : 411 Мбайт (92%)
Библиотека кодирования : XviD 1.2.1 (UTC 2008-12-04)
Аудио
Идентификатор : 1
Формат : MPEG Audio
Версия формата : Version 1
Профиль формата : Layer 3
Идентификатор кодека : 55
Идентификатор кодека/Подсказка : MP3
Продолжительность : 38 м.
Вид битрейта : Постоянный
Битрейт : 128 Кбит/сек
Каналы : 2 канала
Частота : 48,0 КГц
Метод сжатия : С потерями
Размер потока : 35,1 Мбайт (8%)
Выравнивание : Соединение по промежуткам
Продолжительность промежутка : 40 мс. (1,00 видеокадр)
Время предзагрузки промежутка : 504 мс.
Библиотека кодирования : LAME3.98r
Настройки программы : -m s -V 4 -q 2 -lowpass 17 -b 128

Скриншоты

[teatrix.ru].t22866.torrent 
Торрент: Зарегистрирован [ 2016-03-21 00:39 ] · 3DCDF94A21B9A1EA6A02EA7B6FF4BB859403AC52

Скачать .torrent

Скачать

18 KB

Статус: проверено
Скачан: 0 раз
Размер: 449 MB
terms.php



Быстрый ответ

Имя:

      
Для отправки сообщений необходимо включить JavaScript
Показать сообщения:    

Текущее время: 20-Янв 15:00

Часовой пояс: UTC + 3


Вы можете начинать темы
Вы можете отвечать на сообщения
Вы не можете редактировать свои сообщения
Вы не можете удалять свои сообщения
Вы не можете голосовать в опросах
Вы не можете прикреплять файлы к сообщениям
Вы можете скачивать файлы