Анатолий Кузнецов. Сухов Навсегда (Руслан Трещев) [2016, Документальный, HDTVRip-AVC]


Статистика раздачи [Обновить пиров]
Размер:  605 MB   |    Зарегистрирован:  8 месяцев 19 дней   |    Скачан:  0 раз

Полного источника не было: Никогда

 
   
 
 
 

[Цитировать]

Анатолий Кузнецов. Сухов Навсегда- Дата/Год выпуска: 2016
Страна: Россия | "Красный квадрат"
Телеканал: Первый Канала HD
Жанр: Документальный
Продолжительность: 0:49:56
Автор сценарий и режиссер: Руслан Трещев-Описание: Анатолий Кузнецов и Александра Ляпидевская. Эта встреча Нового Года для нее будет уже второй после того, как рядом с ней нет ее близкого и любимого человека.31 декабря они всегда не только готовились к встрече Нового Года, но и в семейном кругу отмечали День рождения Анатолия Борисовича. День Рождения "товарища Сухова".-Автор рипа: lrn
Автор записи: Taz
Сэмпл: sendfile-Тип релиза: HDTVRip-AVC
Контейнер: MKV
Видео: 1024x576 (16:9), 25,000 fps, H264, ~1500 kbps avg, ~0.102 bit/pixel
Аудио: 48 kHz, AC3 Dolby Digital, 2/0 (L,R) ch, ~192.00 kbps avg-

MediaInfo

General
Unique ID : 219013371663225242611352640180321066529 (0xA4C470EA031A91DCB194DF79397D1E21)
Complete name : E:\uTorrent.Temp\Temp\Anatoliy.Kuznetsov.Suhov.Navsegda.2016.HDTVRip-AVC.x264-lrn.mkv
Format : Matroska
Format version : Version 4 / Version 2
File size : 605 MiB
Duration : 49mn 56s
Overall bit rate : 1 694 Kbps
Movie name : Anatoliy.Kuznetsov.Suhov.Navsegda.2016.HDTVRip-AVC.x264-lrn
Encoded date : UTC 2010-02-22 21:41:31
Writing application : mkvmerge v5.9.0 ('On The Loose') built on Dec 9 2012 15:37:01
Writing library : libebml v1.3.0 + libmatroska v1.4.0
Video
ID : 1
Format : AVC
Format/Info : Advanced Video Codec
Format profile : High@L4.1
Format settings, CABAC : Yes
Format settings, ReFrames : 8 frames
Codec ID : V_MPEG4/ISO/AVC
Duration : 49mn 56s
Bit rate : 1 500 Kbps
Width : 1 024 pixels
Height : 576 pixels
Display aspect ratio : 16:9
Frame rate mode : Constant
Frame rate : 25.000 fps
Color space : YUV
Chroma subsampling : 4:2:0
Bit depth : 8 bits
Scan type : Progressive
Bits/(Pixel*Frame) : 0.102
Stream size : 524 MiB (87%)
Writing library : x264 core 148 r2638 7599210
Encoding settings : cabac=1 / ref=8 / deblock=1:-3:-3 / analyse=0x3:0x133 / me=umh / subme=9 / psy=1 / psy_rd=1.00:0.00 / mixed_ref=1 / me_range=32 / chroma_me=1 / trellis=2 / 8x8dct=1 / cqm=0 / deadzone=21,11 / fast_pskip=1 / chroma_qp_offset=-2 / threads=12 / lookahead_threads=2 / sliced_threads=0 / nr=0 / decimate=1 / interlaced=0 / bluray_compat=0 / constrained_intra=0 / bframes=8 / b_pyramid=2 / b_adapt=2 / b_bias=0 / direct=3 / weightb=1 / open_gop=0 / weightp=2 / keyint=250 / keyint_min=25 / scenecut=40 / intra_refresh=0 / rc_lookahead=50 / rc=2pass / mbtree=1 / bitrate=1500 / ratetol=1.0 / qcomp=0.60 / qpmin=0 / qpmax=69 / qpstep=4 / cplxblur=20.0 / qblur=0.5 / vbv_maxrate=62500 / vbv_bufsize=78125 / nal_hrd=none / filler=0 / ip_ratio=1.40 / aq=1:1.00
Default : Yes
Forced : No
Statistics Tags Issue : mkvmerge v8.5.2 ('Crosses') 32bit 2016-01-30 14:24:02 / mkvmerge v5.9.0 ('On The Loose') built on Dec 9 2012 15:37:01 2010-02-22 21:41:31
FromStats_BitRate : 1500015
FromStats_Duration : 00:49:56.480000000
FromStats_FrameCount : 74912
FromStats_StreamSize : 561845852
Audio
ID : 2
Format : AC-3
Format/Info : Audio Coding 3
Mode extension : CM (complete main)
Format settings, Endianness : Big
Codec ID : A_AC3
Duration : 49mn 56s
Bit rate mode : Constant
Bit rate : 192 Kbps
Channel(s) : 2 channels
Channel positions : Front: L R
Sampling rate : 48.0 KHz
Frame rate : 31.250 fps (1536 spf)
Compression mode : Lossy
Stream size : 68.6 MiB (11%)
Language : Russian
Default : Yes
Forced : No

x264 log

raw [info]: 1024x576p 1:1 @ 25/1 fps (cfr)
x264 [info]: using SAR=1/1
x264 [info]: using cpu capabilities: MMX2 SSE2Fast SSSE3 SSE4.2 AVX
x264 [info]: profile High, level 4.1
x264 [info]: frame I:528 Avg QP:14.75 size: 77843
x264 [info]: frame P:19433 Avg QP:17.43 size: 17918
x264 [info]: frame B:54951 Avg QP:21.25 size: 3140
x264 [info]: consecutive B-frames: 2.6% 3.4% 4.4% 70.9% 6.1% 9.2% 1.7% 1.6% 0.2%
x264 [info]: mb I I16..4: 4.9% 77.1% 18.0%
x264 [info]: mb P I16..4: 1.1% 5.9% 0.7% P16..4: 43.8% 16.1% 13.3% 0.5% 0.2% skip:18.4%
x264 [info]: mb B I16..4: 0.1% 0.4% 0.0% B16..8: 31.7% 4.5% 0.9% direct: 3.0% skip:59.4% L0:39.2% L1:50.4% BI:10.4%
x264 [info]: 8x8 transform intra:77.6% inter:60.3%
x264 [info]: direct mvs spatial:96.8% temporal:3.2%
x264 [info]: coded y,uvDC,uvAC intra: 78.3% 73.2% 38.4% inter: 13.7% 15.5% 0.9%
x264 [info]: i16 v,h,dc,p: 29% 20% 11% 40%
x264 [info]: i8 v,h,dc,ddl,ddr,vr,hd,vl,hu: 14% 10% 8% 8% 12% 13% 11% 12% 12%
x264 [info]: i4 v,h,dc,ddl,ddr,vr,hd,vl,hu: 14% 12% 6% 9% 13% 13% 11% 11% 12%
x264 [info]: i8c dc,h,v,p: 38% 26% 21% 15%
x264 [info]: Weighted P-Frames: Y:2.6% UV:0.9%
x264 [info]: ref P L0: 56.7% 10.5% 15.1% 5.4% 4.1% 3.2% 2.9% 1.9% 0.2% 0.0%
x264 [info]: ref B L0: 82.9% 9.3% 3.6% 1.7% 1.2% 0.8% 0.4%
x264 [info]: ref B L1: 95.7% 4.3%
x264 [info]: kb/s:1500.01
encoded 74912 frames, 30.12 fps, 1500.01 kb/s

Скриншоты

-
[teatrix.ru].t22867.torrent 
Торрент: Зарегистрирован [ 2016-03-21 00:39 ] · A996EC5F3F5B0B206C3F0249929AFEC4F43C548E

Скачать .torrent

Скачать

12 KB

Статус: проверено
Скачан: 0 раз
Размер: 605 MB
terms.php



Быстрый ответ

Имя:

      
Для отправки сообщений необходимо включить JavaScript
Показать сообщения:    

Текущее время: 09-Дек 01:01

Часовой пояс: UTC + 3


Вы можете начинать темы
Вы можете отвечать на сообщения
Вы не можете редактировать свои сообщения
Вы не можете удалять свои сообщения
Вы не можете голосовать в опросах
Вы не можете прикреплять файлы к сообщениям
Вы можете скачивать файлы