Университетские встречи. Лия Ахеджакова / ТРК Петербург [2001, документальный, тв-передача, биография, история, VHSRip]


Статистика раздачи [Обновить пиров]
Размер:  1.17 GB   |    Зарегистрирован:  8 месяцев 15 дней   |    Скачан:  0 раз

Полного источника не было: Никогда

 
   
 
 
 

[Цитировать]

Университетские встречи. Лия Ахеджакова
Дата/Год выпуска: 2001
Страна: Россия
Жанр: Документальный, тв-передача, биография, история
Продолжительность: 00:26:29
Перевод: Не требуется
Русские субтитры: нет
Описание:
Встреча с Лией Ахеджаковой в большом театральном зале Санкт-Петербургского гуманитарного университета профсоюзов
Автор рипа/записи: Благодарность за предоставленный материал xeladaw
Качество: VHSRip
Формат видео: MPEG-2
Видео: Mpeg 2 720x576 25.00fps 5 948 Kbps
Аудио: MP-2 224 kbps 2 channels 48 KHz 16 bits

MediaInfo

General
Complete name : E:\Университетские встречи. Лия Ахеджакова (2001)\Университетские встречи. Лия Ахеджакова (2001).mpg
Format : MPEG-PS
File size : 1.17 GiB
Duration : 26mn 29s
Overall bit rate mode : Variable
Overall bit rate : 6 297 Kbps
Video
ID : 224 (0xE0)
Format : MPEG Video
Format version : Version 2
Format profile : Main@Main
Format settings, BVOP : No
Format settings, Matrix : Custom
Format settings, GOP : Variable
Format settings, picture struc : Frame
Duration : 26mn 29s
Bit rate mode : Variable
Bit rate : 5 948 Kbps
Maximum bit rate : 8 500 Kbps
Width : 720 pixels
Height : 576 pixels
Display aspect ratio : 4:3
Frame rate : 25.000 fps
Standard : PAL
Color space : YUV
Chroma subsampling : 4:2:0
Bit depth : 8 bits
Scan type : Interlaced
Scan order : Top Field First
Compression mode : Lossy
Bits/(Pixel*Frame) : 0.574
Time code of first frame : 00:00:00:00
Time code source : Group of pictures header
Stream size : 1.10 GiB (94%)
Color primaries : BT.601 PAL
Transfer characteristics : BT.470 System B, BT.470 System G
Matrix coefficients : BT.601
Audio
ID : 192 (0xC0)
Format : MPEG Audio
Format version : Version 1
Format profile : Layer 2
Mode : Joint stereo
Mode extension : Intensity Stereo + MS Stereo
Duration : 26mn 29s
Bit rate mode : Constant
Bit rate : 224 Kbps
Channel(s) : 2 channels
Sampling rate : 48.0 KHz
Compression mode : Lossy
Stream size : 42.4 MiB (4%)

Скриншоты

[teatrix.ru].t22869.torrent 
Торрент: Зарегистрирован [ 2016-03-21 00:38 ] · 636C68DFF66518BDC45E30BBF1FF8619F7C38E43

Скачать .torrent

Скачать

12 KB

Статус: проверено
Скачан: 0 раз
Размер: 1.17 GB
terms.php



Быстрый ответ

Имя:

      
Для отправки сообщений необходимо включить JavaScript
Показать сообщения:    

Текущее время: 05-Дек 01:17

Часовой пояс: UTC + 3


Вы можете начинать темы
Вы можете отвечать на сообщения
Вы не можете редактировать свои сообщения
Вы не можете удалять свои сообщения
Вы не можете голосовать в опросах
Вы не можете прикреплять файлы к сообщениям
Вы можете скачивать файлы