[TR24][OF] Alec Roth - A Time to Dance (Ex Cathedra, Jeffrey Skidmore) - 2016 (Oratorio, Choral, Orchestral, Neoclassical)


Статистика раздачи [Обновить пиров]
Размер:  657 MB   |    Зарегистрирован:  8 месяцев 19 дней   |    Скачан:  1 раз

Полного источника не было: 1 месяц 16 дней

 
   
 
 
 

[Цитировать]

Alec Roth - A Time to Dance
Формат записи/Источник записи: [TR24][OF]
Наличие водяных знаков: Нет
Год издания/переиздания диска: 2016
Жанр: Oratorio, Choral, Orchestral, Neoclassical
Издатель(лейбл): Hypeion Records
Продолжительность: 01:01:16
Исполнители:
Grace Davidson (soprano),
Matthew Venner (countertenor),
Samuel Boden (tenor),
Greg Skidmore (bass),
Tim Harper (organ),
Ex Cathedra,
Jeffrey Skidmore, conductor.
Recorded on August 14-16, 2014, at All Hallows, Gospel Oak, London, United Kingdom.
Контейнер: FLAC (*.flac)
Тип рипа: tracks
Разрядность: 24/44,1
Количество каналов: 2.0
Источник: Hyperion Records

DR-Report

foobar2000 1.3.6 / Замер динамического диапазона (DR) 1.1.1
Дата отчёта: 2016-02-02 03:39:47
--------------------------------------------------------------------------------
Анализ: Grace Davidson; Jeffrey Skidmore: Ex Cathedra / Roth: A Time to Dance & other choral works (1-3)
Greg Skidmore; Jeffrey Skidmore: Ex Cathedra / Roth: A Time to Dance & other choral works (4-7)
Jeffrey Skidmore: Ex Cathedra / Roth: A Time to Dance & other choral works (8-24)
Matthew Venner; Jeffrey Skidmore: Ex Cathedra / Roth: A Time to Dance & other choral works (25-26)
Samuel Boden; Jeffrey Skidmore: Ex Cathedra / Roth: A Time to Dance & other choral works (27-29)
--------------------------------------------------------------------------------
DR Пики RMS Продолжительность трека
--------------------------------------------------------------------------------
DR13 -6.46 дБ -24.88 дБ 1:10 04-Roth: A Time to Dance - 04: Infant joy
DR13 -3.22 дБ -20.98 дБ 1:20 05-Roth: A Time to Dance - 05: Dancing on the hill-tops
DR10 -5.10 дБ -22.56 дБ 1:06 07-Roth: A Time to Dance - 07: Nothing is so beautiful
DR13 -13.79 дБ -32.55 дБ 3:07 01-Roth: A Time to Dance - 01: Processional 'Times and Seasons'
DR12 -0.10 дБ -20.38 дБ 2:06 02-Roth: A Time to Dance - 02: Prologue 'Sunrise'
DR15 -7.28 дБ -29.51 дБ 1:31 20-Roth: A Time to Dance - 20: Deep midnight
DR13 -1.30 дБ -19.63 дБ 1:28 22-Roth: A Time to Dance - 22: Dregs
DR11 -0.31 дБ -14.78 дБ 1:36 03-Roth: A Time to Dance - 03: Awake
DR12 -9.40 дБ -27.05 дБ 1:55 06-Roth: A Time to Dance - 06: Dance there
DR12 -0.04 дБ -17.04 дБ 3:29 08-Roth: A Time to Dance - 08: Let them love
DR9 -10.05 дБ -25.37 дБ 1:38 10-Roth: A Time to Dance - 10: A something
DR13 -2.65 дБ -21.93 дБ 2:13 12-Roth: A Time to Dance - 12: Little fly
DR12 -0.24 дБ -14.30 дБ 2:52 14-Roth: A Time to Dance - 14: Give all to love
DR14 -3.09 дБ -23.06 дБ 2:44 16-Roth: A Time to Dance - 16: Humdrum
DR12 -4.99 дБ -21.91 дБ 3:03 17-Roth: A Time to Dance - 17: Autumnal
DR11 -11.28 дБ -28.14 дБ 1:06 18-Roth: A Time to Dance - 18: Fall, leaves, fall
DR14 -8.18 дБ -29.53 дБ 2:40 21-Roth: A Time to Dance - 21: Snowflakes
DR12 -0.14 дБ -17.27 дБ 2:12 23-Roth: A Time to Dance - 23: A glee for Winter
DR15 -0.68 дБ -24.12 дБ 4:19 24-Roth: A Time to Dance - 24: Lights out
DR13 -0.06 дБ -19.37 дБ 3:21 25-Roth: A Time to Dance - 25: Epilogue 'Sunrise'
DR14 -0.31 дБ -18.89 дБ 5:11 26-Roth: A Time to Dance - 26: After-dance 'Proper Exercise'
DR14 -10.75 дБ -30.33 дБ 3:36 27-Roth: Magnificat and Nunc dimittis 'Hatfield Service' - 1: Magnificat
DR14 -0.26 дБ -22.82 дБ 3:02 28-Roth: Magnificat and Nunc dimittis 'Hatfield Service' - 2: Nunc dimittis
DR13 -9.78 дБ -29.96 дБ 3:55 29-Roth: Men and Angels, 'Praised be the God of love'
DR10 -10.19 дБ -28.81 дБ 1:31 15-Roth: A Time to Dance - 15: O Autumn
DR12 -4.97 дБ -24.17 дБ 4:00 19-Roth: A Time to Dance - 19: The Evening Star
DR14 -2.03 дБ -23.11 дБ 3:37 09-Roth: A Time to Dance - 09: In Summer's heat
DR12 -1.97 дБ -24.44 дБ 1:19 11-Roth: A Time to Dance - 11: Thirsty fly
DR11 -8.21 дБ -23.83 дБ 0:41 13-Roth: A Time to Dance - 13: Come, let us go
--------------------------------------------------------------------------------
Количество треков: 29
Реальные значения DR: DR13
Частота: 44100 Гц
Каналов: 2
Разрядность: 24
Битрейт: 1241 кбит/с
Кодек: FLAC
================================================================================

Треклист

A Time to Dance [61:16]
01. Processional 'Times and Seasons' To every thing there is a season
02. Prologue 'Sunrise' Out of the wood of thoughts that grows by night
PART 1: SPRING MORNING:
03. Awake
04. Infant Joy I have no name
05. Dancing On The Hill-Tops
06. Dance There
07. Nothing Is So Beautiful
08. Let Them Love
PART 2: SUMMER NOON:
09. In Summer's Heat
10. A Something
11. Thirsty Fly
12. Little Fly
13. Come, Let Us Go
14. Give All To Love
PART 3: AUTUMN EVENING:
15. O Autumn
16. Humdrum When maidens are young
17. Autumnal No Spring nor Summer beauty hath such grace
18. Fall, Leaves, Fall
19. The Evening Star Thou fair-haired angel of the evening
PART 4: WINTER NIGHT:
20. Deep Midnight The sun is spent, and now his flasks
21. Snowflakes Out of the bosom of the air
22. Dregs The fire is out, and spent the warmth thereof
23. A Glee For Winter Hence, rude Winter! crabbed old fellow
24. Lights Out I have come to the borders of sleep
25. Epilogue 'Sunrise' All Kings, and all their favourites
26. After-Dance 'Proper Exercise' Dancing, bright lady, then began to be
Magnificat and Nunc Dimittis 'Hatfield Service' [06:38]
27. 1. Magnificat My soul doth magnify the Lord
28. 2. Nunc dimittis Lord, now lettest thou thy servant depart in peace
29. Men and Angels Praised be the God of love [03:57]
[teatrix.ru].t22871.torrent 
Торрент: Зарегистрирован [ 2016-03-21 00:38 ] · 5F0A482DD58EC8122D13484F71B5E6542750B7B8

Скачать .torrent

Скачать

16 KB

Статус: проверено
Скачан: 1 раз
Размер: 657 MB
terms.php



Быстрый ответ

Имя:

      
Для отправки сообщений необходимо включить JavaScript
Показать сообщения:    

Текущее время: 09-Дек 18:27

Часовой пояс: UTC + 3


Вы можете начинать темы
Вы можете отвечать на сообщения
Вы не можете редактировать свои сообщения
Вы не можете удалять свои сообщения
Вы не можете голосовать в опросах
Вы не можете прикреплять файлы к сообщениям
Вы можете скачивать файлы