(Opera) Antonio Salieri - Les Danaides / Антонио Сальери - Данаиды (Les Talens Lyriques, Christophe Rousset; Judith van Wanroij, Tassis Christoyannis, Philippe Talbot), 2013 - Studio recording [Limited Edition] - 2015 / FLAC (tracks+.cue), lossless


 

[Цитировать]

Antonio Salieri - Les Danaïdes / Антонио Сальери - Данаиды (Les Talens Lyriques, Christophe Rousset; Judith van Wanroij, Tassis Christoyannis, Philippe Talbot, Katia Velletaz)
Жанр: Opera
Страна-производитель диска: Франция
Год издания диска: 2015
Издатель (лейбл): Ediciones Singulares
Дата записи: 2013
Аудиокодек: FLAC
Тип рипа: tracks+.cue
Битрейт аудио: lossless
Продолжительность: 01:47:14
Источник: torters
Исполнители:
Hypermnestre - Judith van Wanroij,
Danaüs - Tassis Christoyannis,
Lyncée - Philippe Talbot,
Plancippe - Katia Velletaz,
Pélagus/Officiers - Thomas Dolié.
Les Chantres du Centre de musique baroque de Versailles,
Les Talens Lyriques,
Christophe Rousset, Conductor.
Recorded at Arsenal – Metz, 29-30 November 2013.

Лог создания рипаЛог создания рипа CD 1

Exact Audio Copy V1.1 from 23. June 2015
EAC extraction logfile from 30. January 2016, 16:36
Christophe Rousset / Les Danaides CD1
Used drive : ATAPI iHBS112 2 Adapter: 1 ID: 1
Read mode : Secure
Utilize accurate stream : Yes
Defeat audio cache : Yes
Make use of C2 pointers : No
Read offset correction : 6
Overread into Lead-In and Lead-Out : No
Fill up missing offset samples with silence : Yes
Delete leading and trailing silent blocks : No
Null samples used in CRC calculations : Yes
Used interface : Native Win32 interface for Win NT & 2000
Gap handling : Appended to previous track
Used output format : User Defined Encoder
Selected bitrate : 128 kBit/s
Quality : High
Add ID3 tag : No
Command line compressor : C:\Program Files\Exact Audio Copy\Flac\flac.exe
Additional command line options : -8 -V -T "ARTIST=%artist%" -T "TITLE=%title%" -T "ALBUM=%albumtitle%" -T "DATE=%year%" -T "TRACKNUMBER=%tracknr%" -T "GENRE=%genre%" -T "PERFORMER=%albuminterpret%" -T "COMPOSER=%composer%" -T "ALBUMARTIST=%albumartist%" -T "DISCNUMBER=%cdnumber%" -T "TOTALDISCS=%totalcds%" -T "TOTALTRACKS=%numtracks%" -T "COMMENT=EAC Secure Mode, Test & Copy, AccurateRip, FLAC -8" %source% -o %dest%
TOC of the extracted CD
Track | Start | Length | Start sector | End sector
---------------------------------------------------------
1 | 0:00.00 | 4:50.53 | 0 | 21802
2 | 4:50.53 | 3:07.29 | 21803 | 35856
3 | 7:58.07 | 2:59.54 | 35857 | 49335
4 | 10:57.61 | 1:26.47 | 49336 | 55832
5 | 12:24.33 | 1:55.02 | 55833 | 64459
6 | 14:19.35 | 1:49.11 | 64460 | 72645
7 | 16:08.46 | 1:25.06 | 72646 | 79026
8 | 17:33.52 | 2:10.67 | 79027 | 88843
9 | 19:44.44 | 1:38.55 | 88844 | 96248
10 | 21:23.24 | 3:00.10 | 96249 | 109758
11 | 24:23.34 | 2:43.02 | 109759 | 121985
12 | 27:06.36 | 4:21.09 | 121986 | 141569
13 | 31:27.45 | 1:47.74 | 141570 | 149668
14 | 33:15.44 | 1:54.63 | 149669 | 158281
15 | 35:10.32 | 2:50.35 | 158282 | 171066
16 | 38:00.67 | 2:32.11 | 171067 | 182477
17 | 40:33.03 | 1:26.58 | 182478 | 188985
18 | 41:59.61 | 1:48.22 | 188986 | 197107
19 | 43:48.08 | 2:52.60 | 197108 | 210067
20 | 46:40.68 | 1:51.34 | 210068 | 218426
21 | 48:32.27 | 2:31.67 | 218427 | 229818
22 | 51:04.19 | 2:31.70 | 229819 | 241213
23 | 53:36.14 | 2:05.39 | 241214 | 250627
24 | 55:41.53 | 0:30.09 | 250628 | 252886
25 | 56:11.62 | 1:26.59 | 252887 | 259395
26 | 57:38.46 | 1:44.24 | 259396 | 267219
27 | 59:22.70 | 2:16.70 | 267220 | 277489
28 | 61:39.65 | 0:23.33 | 277490 | 279247
29 | 62:03.23 | 1:55.11 | 279248 | 287883
30 | 63:58.34 | 1:34.61 | 287884 | 294994
31 | 65:33.20 | 2:26.45 | 294995 | 305989
32 | 67:59.65 | 0:53.29 | 305990 | 309993
33 | 68:53.19 | 1:29.23 | 309994 | 316691
34 | 70:22.42 | 2:03.63 | 316692 | 325979
Track 1
Filename J:\DL\Christophe Rousset - Les Danaides CD1 (2015) [FLAC]\01 - Ouverture.wav
Pre-gap length 0:00:02.00
Peak level 98.3 %
Extraction speed 4.0 X
Track quality 100.0 %
Test CRC 9AA8A0AE
Copy CRC 9AA8A0AE
Track not present in AccurateRip database
Copy OK
Track 2
Filename J:\DL\Christophe Rousset - Les Danaides CD1 (2015) [FLAC]\02 - Acte premier - 'Toi par qui, sans terreur (Danaus, Hypermnestre, Lyncee).wav
Peak level 98.5 %
Extraction speed 4.1 X
Track quality 100.0 %
Test CRC 6326F3D3
Copy CRC 6326F3D3
Track not present in AccurateRip database
Copy OK
Track 3
Filename J:\DL\Christophe Rousset - Les Danaides CD1 (2015) [FLAC]\03 - Acte premier - 'Descends du ciel douce Hymenee' (Choeur).wav
Peak level 98.5 %
Extraction speed 4.2 X
Track quality 100.0 %
Test CRC F20B7CFC
Copy CRC F20B7CFC
Track not present in AccurateRip database
Copy OK
Track 4
Filename J:\DL\Christophe Rousset - Les Danaides CD1 (2015) [FLAC]\04 - Acte premier - Air de Danse.wav
Peak level 33.8 %
Extraction speed 2.9 X
Track quality 99.8 %
Test CRC F2EE400E
Copy CRC F2EE400E
Track not present in AccurateRip database
Copy OK
Track 5
Filename J:\DL\Christophe Rousset - Les Danaides CD1 (2015) [FLAC]\05 - Acte premier - 'Loin de nous, jalousie cruelle' (Plancippe, Peuple et Sacrificateurs).wav
Peak level 83.9 %
Extraction speed 4.1 X
Track quality 100.0 %
Test CRC F3D3DD13
Copy CRC F3D3DD13
Track not present in AccurateRip database
Copy OK
Track 6
Filename J:\DL\Christophe Rousset - Les Danaides CD1 (2015) [FLAC]\06 - Acte premier - Air de Danse.wav
Peak level 40.0 %
Extraction speed 4.2 X
Track quality 100.0 %
Test CRC 75D21C74
Copy CRC 75D21C74
Track not present in AccurateRip database
Copy OK
Track 7
Filename J:\DL\Christophe Rousset - Les Danaides CD1 (2015) [FLAC]\07 - Acte premier - 'Je vois,jeunes epoux' (Danaus).wav
Peak level 35.7 %
Extraction speed 4.0 X
Track quality 100.0 %
Test CRC A098DFBC
Copy CRC A098DFBC
Track not present in AccurateRip database
Copy OK
Track 8
Filename J:\DL\Christophe Rousset - Les Danaides CD1 (2015) [FLAC]\08 - Acte premier - 'Jouissez du destin propice' (Danaus).wav
Peak level 68.8 %
Extraction speed 4.6 X
Track quality 100.0 %
Test CRC 7B71A7AC
Copy CRC 7B71A7AC
Track not present in AccurateRip database
Copy OK
Track 9
Filename J:\DL\Christophe Rousset - Les Danaides CD1 (2015) [FLAC]\09 - Acte premier - 'Hypermnestre, Lyncee' (Hypermnestre, Lyncee).wav
Peak level 42.0 %
Extraction speed 4.4 X
Track quality 100.0 %
Test CRC 627BE060
Copy CRC 627BE060
Track not present in AccurateRip database
Copy OK
Track 10
Filename J:\DL\Christophe Rousset - Les Danaides CD1 (2015) [FLAC]\10 - Acte premier - 'Oublions tous ces jours de peine' (Hypermnestre, Lyncee).wav
Peak level 83.4 %
Extraction speed 5.1 X
Track quality 100.0 %
Test CRC CDB0FFF7
Copy CRC CDB0FFF7
Track not present in AccurateRip database
Copy OK
Track 11
Filename J:\DL\Christophe Rousset - Les Danaides CD1 (2015) [FLAC]\11 - Acte premier - 'Descends du ciel douce Hymenee' (Choeur).wav
Peak level 98.3 %
Extraction speed 4.5 X
Track quality 99.9 %
Test CRC 7DD3642A
Copy CRC 7DD3642A
Track not present in AccurateRip database
Copy OK
Track 12
Filename J:\DL\Christophe Rousset - Les Danaides CD1 (2015) [FLAC]\12 - Acte deuxieme - Ou sommes-nous' (Hypermnestre, Plancippe, Danaus, les Danaides).wav
Pre-gap length 0:00:04.33
Peak level 98.4 %
Extraction speed 5.8 X
Track quality 100.0 %
Test CRC F46D500F
Copy CRC F46D500F
Track not present in AccurateRip database
Copy OK
Track 13
Filename J:\DL\Christophe Rousset - Les Danaides CD1 (2015) [FLAC]\13 - Acte deuxieme - 'Divinite, de sang avide' (Hypermnestre, Danaus, les Danaides).wav
Peak level 87.5 %
Extraction speed 5.0 X
Track quality 100.0 %
Test CRC CEC779E9
Copy CRC CEC779E9
Track not present in AccurateRip database
Copy OK
Track 14
Filename J:\DL\Christophe Rousset - Les Danaides CD1 (2015) [FLAC]\14 - Acte deuxieme - 'Je vois vous fremire de colere' (Danaus, les Danaides).wav
Peak level 98.6 %
Extraction speed 4.2 X
Track quality 99.9 %
Test CRC AF306651
Copy CRC AF306651
Track not present in AccurateRip database
Copy OK
Track 15
Filename J:\DL\Christophe Rousset - Les Danaides CD1 (2015) [FLAC]\15 - Acte deuxieme - 'Quand tes soeurs ont jure' (Hypermnestre, Danaus).wav
Peak level 70.7 %
Extraction speed 5.8 X
Track quality 100.0 %
Test CRC 68A0B5CF
Copy CRC 68A0B5CF
Track not present in AccurateRip database
Copy OK
Track 16
Filename J:\DL\Christophe Rousset - Les Danaides CD1 (2015) [FLAC]\16 - Acte deuxieme - 'Par les larmes dont votre fille' (Hypermnestre).wav
Peak level 70.1 %
Extraction speed 5.8 X
Track quality 100.0 %
Test CRC 7D7FF096
Copy CRC 7D7FF096
Track not present in AccurateRip database
Copy OK
Track 17
Filename J:\DL\Christophe Rousset - Les Danaides CD1 (2015) [FLAC]\17 - Acte deuxieme - 'Fille indigne de la lumiere' (Danaus).wav
Peak level 83.1 %
Extraction speed 5.1 X
Track quality 100.0 %
Test CRC EE0F0109
Copy CRC EE0F0109
Track not present in AccurateRip database
Copy OK
Track 18
Filename J:\DL\Christophe Rousset - Les Danaides CD1 (2015) [FLAC]\18 - Acte deuxieme - 'Ou suis-je, o ciel' (Hypermnestre).wav
Peak level 56.8 %
Extraction speed 5.5 X
Track quality 100.0 %
Test CRC FE09005D
Copy CRC FE09005D
Track not present in AccurateRip database
Copy OK
Track 19
Filename J:\DL\Christophe Rousset - Les Danaides CD1 (2015) [FLAC]\19 - Acte deuxieme - 'Foudre celeste, Je t'appelle' (Hypermnestre).wav
Peak level 98.5 %
Extraction speed 6.2 X
Track quality 100.0 %
Test CRC 7BBE2208
Copy CRC 7BBE2208
Track not present in AccurateRip database
Copy OK
Track 20
Filename J:\DL\Christophe Rousset - Les Danaides CD1 (2015) [FLAC]\20 - Acte troisieme - 'Celebrons a l'envie cette heureuse alliance' (Les Danaides, Les Epoux).wav
Pre-gap length 0:00:04.47
Peak level 93.9 %
Extraction speed 5.8 X
Track quality 100.0 %
Test CRC 7B007A71
Copy CRC 7B007A71
Track not present in AccurateRip database
Copy OK
Track 21
Filename J:\DL\Christophe Rousset - Les Danaides CD1 (2015) [FLAC]\21 - Acte troisieme - Air de danse.wav
Peak level 48.5 %
Extraction speed 6.2 X
Track quality 100.0 %
Test CRC 765D6E94
Copy CRC 765D6E94
Track not present in AccurateRip database
Copy OK
Track 22
Filename J:\DL\Christophe Rousset - Les Danaides CD1 (2015) [FLAC]\22 - Acte troisieme - 'Descends dans les seins d'Amphitrite' (Les Epoux).wav
Peak level 57.8 %
Extraction speed 6.4 X
Track quality 100.0 %
Test CRC B33F4D32
Copy CRC B33F4D32
Track not present in AccurateRip database
Copy OK
Track 23
Filename J:\DL\Christophe Rousset - Les Danaides CD1 (2015) [FLAC]\23 - Acte troisieme - Air de danse.wav
Peak level 25.5 %
Extraction speed 5.2 X
Track quality 99.9 %
Test CRC 95544F14
Copy CRC 95544F14
Track not present in AccurateRip database
Copy OK
Track 24
Filename J:\DL\Christophe Rousset - Les Danaides CD1 (2015) [FLAC]\24 - Acte troisieme - 'Aux dieux qui suivent l'Hymenee' (Danaus).wav
Peak level 54.3 %
Extraction speed 3.7 X
Track quality 100.0 %
Test CRC 17B5426C
Copy CRC 17B5426C
Track not present in AccurateRip database
Copy OK
Track 25
Filename J:\DL\Christophe Rousset - Les Danaides CD1 (2015) [FLAC]\25 - Acte troisieme - 'L'Amour sourit au doux vainqueur'(Les Danaides, Les Epoux).wav
Peak level 98.6 %
Extraction speed 5.6 X
Track quality 100.0 %
Test CRC 54044D35
Copy CRC 54044D35
Track not present in AccurateRip database
Copy OK
Track 26
Filename J:\DL\Christophe Rousset - Les Danaides CD1 (2015) [FLAC]\26 - Acte troisieme - 'Prends ce gage sacre' (Hypermnestre, Lyncee, Danaus).wav
Peak level 42.0 %
Extraction speed 6.2 X
Track quality 100.0 %
Test CRC 1C61E6EB
Copy CRC 1C61E6EB
Track not present in AccurateRip database
Copy OK
Track 27
Filename J:\DL\Christophe Rousset - Les Danaides CD1 (2015) [FLAC]\27 - Acte troisieme - 'Rends-moi ton coeur' (Lyncee).wav
Peak level 39.3 %
Extraction speed 6.6 X
Track quality 100.0 %
Test CRC 86E0A9CA
Copy CRC 86E0A9CA
Track not present in AccurateRip database
Copy OK
Track 28
Filename J:\DL\Christophe Rousset - Les Danaides CD1 (2015) [FLAC]\28 - Acte troisieme - 'Mon courage est a bout' (Hypermnestre, Lyncee).wav
Peak level 29.1 %
Extraction speed 3.3 X
Track quality 100.0 %
Test CRC 0EBDD406
Copy CRC 0EBDD406
Track not present in AccurateRip database
Copy OK
Track 29
Filename J:\DL\Christophe Rousset - Les Danaides CD1 (2015) [FLAC]\29 - Acte troisieme - 'Mon pere... mon epoux...' (Hypermnestre).wav
Peak level 98.6 %
Extraction speed 6.3 X
Track quality 100.0 %
Test CRC 40C9E5BE
Copy CRC 40C9E5BE
Track not present in AccurateRip database
Copy OK
Track 30
Filename J:\DL\Christophe Rousset - Les Danaides CD1 (2015) [FLAC]\30 - Acte troisieme - 'Reprends tes esprits et tes sens' (Danaus).wav
Peak level 51.0 %
Extraction speed 6.1 X
Track quality 100.0 %
Test CRC DDD7360A
Copy CRC DDD7360A
Track not present in AccurateRip database
Copy OK
Track 31
Filename J:\DL\Christophe Rousset - Les Danaides CD1 (2015) [FLAC]\31 - Acte troisieme - Air de danse.wav
Peak level 98.2 %
Extraction speed 6.8 X
Track quality 100.0 %
Test CRC 182AB992
Copy CRC 182AB992
Track not present in AccurateRip database
Copy OK
Track 32
Filename J:\DL\Christophe Rousset - Les Danaides CD1 (2015) [FLAC]\32 - Acte troisieme - Pour nos devoirs' (les Danaides).wav
Peak level 75.8 %
Extraction speed 5.3 X
Track quality 100.0 %
Test CRC 981D29C4
Copy CRC 981D29C4
Track not present in AccurateRip database
Copy OK
Track 33
Filename J:\DL\Christophe Rousset - Les Danaides CD1 (2015) [FLAC]\33 - Acte troisieme - 'L'Amour sourit au doux vainqueur'(Les Danaides, Les Epoux).wav
Peak level 98.7 %
Extraction speed 4.8 X
Track quality 99.8 %
Test CRC 00B5868D
Copy CRC 00B5868D
Track not present in AccurateRip database
Copy OK
Track 34
Filename J:\DL\Christophe Rousset - Les Danaides CD1 (2015) [FLAC]\34 - Acte troisieme - Pantomime.wav
Peak level 51.2 %
Extraction speed 5.6 X
Track quality 99.9 %
Test CRC 022D1C59
Copy CRC 022D1C59
Track not present in AccurateRip database
Copy OK
None of the tracks are present in the AccurateRip database
No errors occurred
End of status report
---- CUETools DB Plugin V2.1.6
[CTDB TOCID: ZayAlhoG9Ad7w4kpz3JtKLAmAPo-] found
Submit result: ZayAlhoG9Ad7w4kpz3JtKLAmAPo- has been confirmed
Track | CTDB Status
1 | (3/3) Accurately ripped
2 | (3/3) Accurately ripped
3 | (3/3) Accurately ripped
4 | (3/3) Accurately ripped
5 | (3/3) Accurately ripped
6 | (3/3) Accurately ripped
7 | (3/3) Accurately ripped
8 | (3/3) Accurately ripped
9 | (3/3) Accurately ripped
10 | (3/3) Accurately ripped
11 | (3/3) Accurately ripped
12 | (3/3) Accurately ripped
13 | (3/3) Accurately ripped
14 | (3/3) Accurately ripped
15 | (3/3) Accurately ripped
16 | (3/3) Accurately ripped
17 | (3/3) Accurately ripped
18 | (3/3) Accurately ripped
19 | (3/3) Accurately ripped
20 | (3/3) Accurately ripped
21 | (3/3) Accurately ripped
22 | (3/3) Accurately ripped
23 | (3/3) Accurately ripped
24 | (3/3) Accurately ripped
25 | (3/3) Accurately ripped
26 | (3/3) Accurately ripped
27 | (3/3) Accurately ripped
28 | (3/3) Accurately ripped
29 | (3/3) Accurately ripped
30 | (3/3) Accurately ripped
31 | (3/3) Accurately ripped
32 | (3/3) Accurately ripped
33 | (3/3) Accurately ripped
34 | (3/3) Accurately ripped
==== Log checksum DF8EF2584AA83AA2023B120B16A4F68CF67AC0DCBA0AA736D1DE10401FD955B8 ====

Лог создания рипа CD 2

Exact Audio Copy V1.1 from 23. June 2015
EAC extraction logfile from 30. January 2016, 17:47
Christophe Rousset / Les Danaides CD2
Used drive : ATAPI iHBS112 2 Adapter: 1 ID: 1
Read mode : Secure
Utilize accurate stream : Yes
Defeat audio cache : Yes
Make use of C2 pointers : No
Read offset correction : 6
Overread into Lead-In and Lead-Out : No
Fill up missing offset samples with silence : Yes
Delete leading and trailing silent blocks : No
Null samples used in CRC calculations : Yes
Used interface : Native Win32 interface for Win NT & 2000
Gap handling : Appended to previous track
Used output format : User Defined Encoder
Selected bitrate : 128 kBit/s
Quality : High
Add ID3 tag : No
Command line compressor : C:\Program Files\Exact Audio Copy\Flac\flac.exe
Additional command line options : -8 -V -T "ARTIST=%artist%" -T "TITLE=%title%" -T "ALBUM=%albumtitle%" -T "DATE=%year%" -T "TRACKNUMBER=%tracknr%" -T "GENRE=%genre%" -T "PERFORMER=%albuminterpret%" -T "COMPOSER=%composer%" -T "ALBUMARTIST=%albumartist%" -T "DISCNUMBER=%cdnumber%" -T "TOTALDISCS=%totalcds%" -T "TOTALTRACKS=%numtracks%" -T "COMMENT=EAC Secure Mode, Test & Copy, AccurateRip, FLAC -8" %source% -o %dest%
TOC of the extracted CD
Track | Start | Length | Start sector | End sector
---------------------------------------------------------
1 | 0:00.00 | 2:28.07 | 0 | 11106
2 | 2:28.07 | 3:00.44 | 11107 | 24650
3 | 5:28.51 | 2:11.18 | 24651 | 34493
4 | 7:39.69 | 2:14.05 | 34494 | 44548
5 | 9:53.74 | 2:24.22 | 44549 | 55370
6 | 12:18.21 | 1:43.31 | 55371 | 63126
7 | 14:01.52 | 1:35.01 | 63127 | 70252
8 | 15:36.53 | 1:00.31 | 70253 | 74783
9 | 16:37.09 | 0:35.24 | 74784 | 77432
10 | 17:12.33 | 1:14.40 | 77433 | 83022
11 | 18:26.73 | 2:55.72 | 83023 | 96219
12 | 21:22.70 | 1:25.57 | 96220 | 102651
13 | 22:48.52 | 2:17.61 | 102652 | 112987
14 | 25:06.38 | 2:05.62 | 112988 | 122424
15 | 27:12.25 | 1:05.21 | 122425 | 127320
16 | 28:17.46 | 1:21.61 | 127321 | 133456
17 | 29:39.32 | 1:04.30 | 133457 | 138286
18 | 30:43.62 | 2:08.41 | 138287 | 147927
19 | 32:52.28 | 3:04.39 | 147928 | 161766
Track 1
Filename J:\DL\Christophe Rousset - Les Danaides CD2 (2015) [FLAC]\01 - Acte quatrieme - 'Ecoutez-moi, mon pere' (Hypermnestre, Danaus).wav
Pre-gap length 0:00:02.00
Peak level 76.2 %
Extraction speed 1.7 X
Track quality 100.0 %
Test CRC CFC73888
Copy CRC CFC73888
Track not present in AccurateRip database
Copy OK
Track 2
Filename J:\DL\Christophe Rousset - Les Danaides CD2 (2015) [FLAC]\02 - Acte quatrieme - 'Le barbare- Il me fuit- ' (Hypermnestre.wav
Peak level 60.6 %
Extraction speed 1.4 X
Track quality 99.9 %
Test CRC F04BCF21
Copy CRC F04BCF21
Track not present in AccurateRip database
Copy OK
Track 3
Filename J:\DL\Christophe Rousset - Les Danaides CD2 (2015) [FLAC]\03 - Acte quatrieme - 'Vous qui voyez l'exces' (Hypermnestre).wav
Peak level 67.0 %
Extraction speed 2.0 X
Track quality 100.0 %
Test CRC 8D66168F
Copy CRC 8D66168F
Track not present in AccurateRip database
Copy OK
Track 4
Filename J:\DL\Christophe Rousset - Les Danaides CD2 (2015) [FLAC]\04 - Acte quatrieme - 'Lyncee, a tes genoux' (Hypermnestre, Lyncee).wav
Peak level 84.9 %
Extraction speed 2.1 X
Track quality 100.0 %
Test CRC 441A5982
Copy CRC 441A5982
Track not present in AccurateRip database
Copy OK
Track 5
Filename J:\DL\Christophe Rousset - Les Danaides CD2 (2015) [FLAC]\05 - Acte quatrieme - 'A peine aux autels d'Hymenee' (Hypermnestre, Lyncee).wav
Peak level 64.6 %
Extraction speed 2.2 X
Track quality 100.0 %
Test CRC 126C99A0
Copy CRC 126C99A0
Track not present in AccurateRip database
Copy OK
Track 6
Filename J:\DL\Christophe Rousset - Les Danaides CD2 (2015) [FLAC]\06 - Acte quatrieme - 'Ma force m'abandonne' (Hypermnestre, Lyncee).wav
Peak level 73.0 %
Extraction speed 2.1 X
Track quality 100.0 %
Test CRC AA55BF48
Copy CRC AA55BF48
Track not present in AccurateRip database
Copy OK
Track 7
Filename J:\DL\Christophe Rousset - Les Danaides CD2 (2015) [FLAC]\07 - Acte quatrieme - 'Helas- Que ne puis-je te suivre' (Hypermnestre, Lyncee).wav
Peak level 69.2 %
Extraction speed 2.1 X
Track quality 100.0 %
Test CRC A4D56EA8
Copy CRC A4D56EA8
Track not present in AccurateRip database
Copy OK
Track 8
Filename J:\DL\Christophe Rousset - Les Danaides CD2 (2015) [FLAC]\08 - Acte quatrieme - 'Sort cruel-' (Hypermnestre, Lyncee).wav
Peak level 85.0 %
Extraction speed 0.9 X
Track quality 99.8 %
Test CRC 5956AE69
Copy CRC 5956AE69
Track not present in AccurateRip database
Copy OK
Track 9
Filename J:\DL\Christophe Rousset - Les Danaides CD2 (2015) [FLAC]\09 - Acte quatrieme - 'Suivez-moi, Prince' (Hypermnestre, Lyncee, Pelagus).wav
Peak level 98.5 %
Extraction speed 1.5 X
Track quality 100.0 %
Test CRC AC688A8A
Copy CRC AC688A8A
Track not present in AccurateRip database
Copy OK
Track 10
Filename J:\DL\Christophe Rousset - Les Danaides CD2 (2015) [FLAC]\10 - Acte quatrieme - 'Arrete,implacable furie- ' (Hypermnestre, les Époux).wav
Peak level 83.1 %
Extraction speed 2.1 X
Track quality 100.0 %
Test CRC 6B1187DF
Copy CRC 6B1187DF
Track not present in AccurateRip database
Copy OK
Track 11
Filename J:\DL\Christophe Rousset - Les Danaides CD2 (2015) [FLAC]\11 - Acte cinquieme - 'Ou suis-je- ' (Hypermnestre).wav
Peak level 80.7 %
Extraction speed 1.8 X
Track quality 99.9 %
Test CRC EF2C9222
Copy CRC EF2C9222
Track not present in AccurateRip database
Copy OK
Track 12
Filename J:\DL\Christophe Rousset - Les Danaides CD2 (2015) [FLAC]\12 - Acte cinquieme - 'Pere barbare' (Hypermnestre.wav
Peak level 98.5 %
Extraction speed 2.3 X
Track quality 100.0 %
Test CRC 24C1A2FE
Copy CRC 24C1A2FE
Track not present in AccurateRip database
Copy OK
Track 13
Filename J:\DL\Christophe Rousset - Les Danaides CD2 (2015) [FLAC]\13 - Acte cinquieme - 'Ma vengeance, est-elle remplie' (Hypermnestre, Danaus).wav
Peak level 74.6 %
Extraction speed 2.7 X
Track quality 100.0 %
Test CRC D45333EE
Copy CRC D45333EE
Track not present in AccurateRip database
Copy OK
Track 14
Filename J:\DL\Christophe Rousset - Les Danaides CD2 (2015) [FLAC]\14 - Acte cinquieme - 'Gloire- Evan- Evohe- (Plancippe, les Danaides).wav
Peak level 98.6 %
Extraction speed 1.7 X
Track quality 99.9 %
Test CRC F9D2B6EB
Copy CRC F9D2B6EB
Track not present in AccurateRip database
Copy OK
Track 15
Filename J:\DL\Christophe Rousset - Les Danaides CD2 (2015) [FLAC]\15 - Acte cinquieme - 'Mes filles, chers objets' (Danaus, les Danaides).wav
Peak level 98.6 %
Extraction speed 2.3 X
Track quality 100.0 %
Test CRC 8FE79486
Copy CRC 8FE79486
Track not present in AccurateRip database
Copy OK
Track 16
Filename J:\DL\Christophe Rousset - Les Danaides CD2 (2015) [FLAC]\16 - Acte cinquieme - 'Dieux- Auriez-vous trahi' (Danaus).wav
Peak level 99.1 %
Extraction speed 2.5 X
Track quality 100.0 %
Test CRC F2381EE5
Copy CRC F2381EE5
Track not present in AccurateRip database
Copy OK
Track 17
Filename J:\DL\Christophe Rousset - Les Danaides CD2 (2015) [FLAC]\17 - Acte cinquieme - 'Seigneur, Lyncee, accourant (Danaus, Premier Officier, Deuxieme Officier).wav
Peak level 69.3 %
Extraction speed 1.2 X
Track quality 99.8 %
Test CRC 65CEF1CA
Copy CRC 65CEF1CA
Track not present in AccurateRip database
Copy OK
Track 18
Filename J:\DL\Christophe Rousset - Les Danaides CD2 (2015) [FLAC]\18 - Acte cinquieme - 'Tu t'applaudis du piege' (Hypermnestre, Lyncee, Danaus, Pelagus).wav
Peak level 98.8 %
Extraction speed 2.9 X
Track quality 100.0 %
Test CRC F85B0EA6
Copy CRC F85B0EA6
Track not present in AccurateRip database
Copy OK
Track 19
Filename J:\DL\Christophe Rousset - Les Danaides CD2 (2015) [FLAC]\19 - Acte cinquieme - 'Mais du courroux du ciel' (Lyncee, le Peuple, les Danaides, les Demons).wav
Peak level 99.1 %
Extraction speed 3.1 X
Track quality 100.0 %
Test CRC 7797CE56
Copy CRC 7797CE56
Track not present in AccurateRip database
Copy OK
None of the tracks are present in the AccurateRip database
No errors occurred
End of status report
---- CUETools DB Plugin V2.1.6
[CTDB TOCID: Z._EUNaPbb8evVNOXQYOlJ6XIVk-] found
Submit result: Z._EUNaPbb8evVNOXQYOlJ6XIVk- has been confirmed
Track | CTDB Status
1 | (3/3) Accurately ripped
2 | (3/3) Accurately ripped
3 | (3/3) Accurately ripped
4 | (3/3) Accurately ripped
5 | (3/3) Accurately ripped
6 | (3/3) Accurately ripped
7 | (3/3) Accurately ripped
8 | (3/3) Accurately ripped
9 | (3/3) Accurately ripped
10 | (3/3) Accurately ripped
11 | (3/3) Accurately ripped
12 | (3/3) Accurately ripped
13 | (3/3) Accurately ripped
14 | (3/3) Accurately ripped
15 | (3/3) Accurately ripped
16 | (3/3) Accurately ripped
17 | (3/3) Accurately ripped
18 | (3/3) Accurately ripped
19 | (3/3) Accurately ripped
==== Log checksum 675EAFCA806E85BD7DF019D64EA22DD496EC8EB4E5DDBFE0AFB507F90C1C9131 ====

Содержание индексной карты (.CUE)Содержание индексной карты (.CUE) CD 1

REM GENRE Opera
REM DATE 2015
REM DISCID F110FA22
REM COMMENT "ExactAudioCopy v1.1"
PERFORMER "Christophe Rousset"
TITLE "Les Danaides CD1"
FILE "01 - Ouverture.wav" WAVE
TRACK 01 AUDIO
TITLE "Ouverture"
PERFORMER "Christophe Rousset"
INDEX 01 00:00:00
FILE "02 - Acte premier - 'Toi par qui, sans terreur (Danaus, Hypermnestre, Lyncee).wav" WAVE
TRACK 02 AUDIO
TITLE "Acte premier - 'Toi par qui, sans terreur (Danaьs, Hypermnestre, Lyncйe)"
PERFORMER "Christophe Rousset"
INDEX 01 00:00:00
FILE "03 - Acte premier - 'Descends du ciel douce Hymenee' (Choeur).wav" WAVE
TRACK 03 AUDIO
TITLE "Acte premier - 'Descends du ciel douce Hymйnйe' (Choeur)"
PERFORMER "Christophe Rousset"
INDEX 01 00:00:00
FILE "04 - Acte premier - Air de Danse.wav" WAVE
TRACK 04 AUDIO
TITLE "Acte premier - Air de Danse"
PERFORMER "Christophe Rousset"
INDEX 01 00:00:00
FILE "05 - Acte premier - 'Loin de nous, jalousie cruelle' (Plancippe, Peuple et Sacrificateurs).wav" WAVE
TRACK 05 AUDIO
TITLE "Acte premier - 'Loin de nous, jalousie cruelle' (Plancippe, Peuple et Sacrifi..."
PERFORMER "Christophe Rousset"
INDEX 01 00:00:00
FILE "06 - Acte premier - Air de Danse.wav" WAVE
TRACK 06 AUDIO
TITLE "Acte premier - Air de Danse"
PERFORMER "Christophe Rousset"
INDEX 01 00:00:00
FILE "07 - Acte premier - 'Je vois,jeunes epoux' (Danaus).wav" WAVE
TRACK 07 AUDIO
TITLE "Acte premier - 'Je vois,jeunes иpoux' (Danaьs)"
PERFORMER "Christophe Rousset"
INDEX 01 00:00:00
FILE "08 - Acte premier - 'Jouissez du destin propice' (Danaus).wav" WAVE
TRACK 08 AUDIO
TITLE "Acte premier - 'Jouissez du destin propice' (Danaьs)"
PERFORMER "Christophe Rousset"
INDEX 01 00:00:00
FILE "09 - Acte premier - 'Hypermnestre, Lyncee' (Hypermnestre, Lyncee).wav" WAVE
TRACK 09 AUDIO
TITLE "Acte premier - 'Hypermnestre, Lyncйe' (Hypermnestre, Lyncйe)"
PERFORMER "Christophe Rousset"
INDEX 01 00:00:00
FILE "10 - Acte premier - 'Oublions tous ces jours de peine' (Hypermnestre, Lyncee).wav" WAVE
TRACK 10 AUDIO
TITLE "Acte premier - 'Oublions tous ces jours de peine' (Hypermnestre, Lyncйe)"
PERFORMER "Christophe Rousset"
INDEX 01 00:00:00
FILE "11 - Acte premier - 'Descends du ciel douce Hymenee' (Choeur).wav" WAVE
TRACK 11 AUDIO
TITLE "Acte premier - 'Descends du ciel douce Hymйnйe' (Choeur)"
PERFORMER "Christophe Rousset"
INDEX 01 00:00:00
TRACK 12 AUDIO
TITLE "Acte deuxiиme - Ou sommes-nous' (Hypermnestre, Plancippe, Danaьs, les Danaides)"
PERFORMER "Christophe Rousset"
INDEX 00 02:38:44
FILE "12 - Acte deuxieme - Ou sommes-nous' (Hypermnestre, Plancippe, Danaus, les Danaides).wav" WAVE
INDEX 01 00:00:00
FILE "13 - Acte deuxieme - 'Divinite, de sang avide' (Hypermnestre, Danaus, les Danaides).wav" WAVE
TRACK 13 AUDIO
TITLE "Acte deuxiиme - 'Divinitй, de sang avide' (Hypermnestre, Danaьs, les Danaides)"
PERFORMER "Christophe Rousset"
INDEX 01 00:00:00
FILE "14 - Acte deuxieme - 'Je vois vous fremire de colere' (Danaus, les Danaides).wav" WAVE
TRACK 14 AUDIO
TITLE "Acte deuxiиme - 'Je vois vous frйmire de colиre' (Danaьs, les Danaides)"
PERFORMER "Christophe Rousset"
INDEX 01 00:00:00
FILE "15 - Acte deuxieme - 'Quand tes soeurs ont jure' (Hypermnestre, Danaus).wav" WAVE
TRACK 15 AUDIO
TITLE "Acte deuxiиme - 'Quand tes soeurs ont jurй' (Hypermnestre, Danaьs)"
PERFORMER "Christophe Rousset"
INDEX 01 00:00:00
FILE "16 - Acte deuxieme - 'Par les larmes dont votre fille' (Hypermnestre).wav" WAVE
TRACK 16 AUDIO
TITLE "Acte deuxiиme - 'Par les larmes dont votre fille' (Hypermnestre)"
PERFORMER "Christophe Rousset"
INDEX 01 00:00:00
FILE "17 - Acte deuxieme - 'Fille indigne de la lumiere' (Danaus).wav" WAVE
TRACK 17 AUDIO
TITLE "Acte deuxiиme - 'Fille indigne de la lumiиre' (Danaьs)"
PERFORMER "Christophe Rousset"
INDEX 01 00:00:00
FILE "18 - Acte deuxieme - 'Ou suis-je, o ciel' (Hypermnestre).wav" WAVE
TRACK 18 AUDIO
TITLE "Acte deuxiиme - 'Ou suis-je, o ciel' (Hypermnestre)"
PERFORMER "Christophe Rousset"
INDEX 01 00:00:00
FILE "19 - Acte deuxieme - 'Foudre celeste, Je t'appelle' (Hypermnestre).wav" WAVE
TRACK 19 AUDIO
TITLE "Acte deuxiиme - 'Foudre cйleste, Je t'appelle' (Hypermnestre)"
PERFORMER "Christophe Rousset"
INDEX 01 00:00:00
TRACK 20 AUDIO
TITLE "Acte troisiиme - 'Cйlйbrons a l'envie cette heureuse alliance' (Les Danaides,..."
PERFORMER "Christophe Rousset"
INDEX 00 02:48:13
FILE "20 - Acte troisieme - 'Celebrons a l'envie cette heureuse alliance' (Les Danaides, Les Epoux).wav" WAVE
INDEX 01 00:00:00
FILE "21 - Acte troisieme - Air de danse.wav" WAVE
TRACK 21 AUDIO
TITLE "Acte troisiиme - Air de danse"
PERFORMER "Christophe Rousset"
INDEX 01 00:00:00
FILE "22 - Acte troisieme - 'Descends dans les seins d'Amphitrite' (Les Epoux).wav" WAVE
TRACK 22 AUDIO
TITLE "Acte troisiиme - 'Descends dans les seins d'Amphitrite' (Les Epoux)"
PERFORMER "Christophe Rousset"
INDEX 01 00:00:00
FILE "23 - Acte troisieme - Air de danse.wav" WAVE
TRACK 23 AUDIO
TITLE "Acte troisiиme - Air de danse"
PERFORMER "Christophe Rousset"
INDEX 01 00:00:00
FILE "24 - Acte troisieme - 'Aux dieux qui suivent l'Hymenee' (Danaus).wav" WAVE
TRACK 24 AUDIO
TITLE "Acte troisiиme - 'Aux dieux qui suivent l'Hymйnйe' (Danaьs)"
PERFORMER "Christophe Rousset"
INDEX 01 00:00:00
FILE "25 - Acte troisieme - 'L'Amour sourit au doux vainqueur'(Les Danaides, Les Epoux).wav" WAVE
TRACK 25 AUDIO
TITLE "Acte troisiиme - 'L'Amour sourit au doux vainqueur'(Les Danaides, Les Epoux)"
PERFORMER "Christophe Rousset"
INDEX 01 00:00:00
FILE "26 - Acte troisieme - 'Prends ce gage sacre' (Hypermnestre, Lyncee, Danaus).wav" WAVE
TRACK 26 AUDIO
TITLE "Acte troisiиme - 'Prends ce gage sacrй' (Hypermnestre, Lyncйe, Danaьs)"
PERFORMER "Christophe Rousset"
INDEX 01 00:00:00
FILE "27 - Acte troisieme - 'Rends-moi ton coeur' (Lyncee).wav" WAVE
TRACK 27 AUDIO
TITLE "Acte troisiиme - 'Rends-moi ton coeur' (Lyncйe)"
PERFORMER "Christophe Rousset"
INDEX 01 00:00:00
FILE "28 - Acte troisieme - 'Mon courage est a bout' (Hypermnestre, Lyncee).wav" WAVE
TRACK 28 AUDIO
TITLE "Acte troisiиme - 'Mon courage est a bout' (Hypermnestre, Lyncйe)"
PERFORMER "Christophe Rousset"
INDEX 01 00:00:00
FILE "29 - Acte troisieme - 'Mon pere... mon epoux...' (Hypermnestre).wav" WAVE
TRACK 29 AUDIO
TITLE "Acte troisiиme - 'Mon pиre... mon йpoux...' (Hypermnestre)"
PERFORMER "Christophe Rousset"
INDEX 01 00:00:00
FILE "30 - Acte troisieme - 'Reprends tes esprits et tes sens' (Danaus).wav" WAVE
TRACK 30 AUDIO
TITLE "Acte troisiиme - 'Reprends tes esprits et tes sens' (Danaьs)"
PERFORMER "Christophe Rousset"
INDEX 01 00:00:00
FILE "31 - Acte troisieme - Air de danse.wav" WAVE
TRACK 31 AUDIO
TITLE "Acte troisiиme - Air de danse"
PERFORMER "Christophe Rousset"
INDEX 01 00:00:00
FILE "32 - Acte troisieme - Pour nos devoirs' (les Danaides).wav" WAVE
TRACK 32 AUDIO
TITLE "Acte troisiиme - Pour nos devoirs' (les Danaides)"
PERFORMER "Christophe Rousset"
INDEX 01 00:00:00
FILE "33 - Acte troisieme - 'L'Amour sourit au doux vainqueur'(Les Danaides, Les Epoux).wav" WAVE
TRACK 33 AUDIO
TITLE "Acte troisiиme - 'L'Amour sourit au doux vainqueur'(Les Danaides, Les Epoux)"
PERFORMER "Christophe Rousset"
INDEX 01 00:00:00
FILE "34 - Acte troisieme - Pantomime.wav" WAVE
TRACK 34 AUDIO
TITLE "Acte troisiиme - Pantomime"
PERFORMER "Christophe Rousset"
INDEX 01 00:00:00

Содержание индексной карты (.CUE) CD 2

REM GENRE Opera
REM DATE 2015
REM DISCID 0F086C13
REM COMMENT "ExactAudioCopy v1.1"
PERFORMER "Christophe Rousset"
TITLE "Les Danaides CD2"
FILE "01 - Acte quatrieme - 'Ecoutez-moi, mon pere' (Hypermnestre, Danaus).wav" WAVE
TRACK 01 AUDIO
TITLE "Acte quatriиme - 'Ecoutez-moi, mon pиre' (Hypermnestre, Danaьs)"
PERFORMER "Christophe Rousset"
INDEX 01 00:00:00
FILE "02 - Acte quatrieme - 'Le barbare- Il me fuit- ' (Hypermnestre.wav" WAVE
TRACK 02 AUDIO
TITLE "Acte quatriиme - 'Le barbare- Il me fuit- ' (Hypermnestre"
PERFORMER "Christophe Rousset"
INDEX 01 00:00:00
FILE "03 - Acte quatrieme - 'Vous qui voyez l'exces' (Hypermnestre).wav" WAVE
TRACK 03 AUDIO
TITLE "Acte quatriиme - 'Vous qui voyez l'excйs' (Hypermnestre)"
PERFORMER "Christophe Rousset"
INDEX 01 00:00:00
FILE "04 - Acte quatrieme - 'Lyncee, a tes genoux' (Hypermnestre, Lyncee).wav" WAVE
TRACK 04 AUDIO
TITLE "Acte quatriиme - 'Lyncйe, a tes genoux' (Hypermnestre, Lyncйe)"
PERFORMER "Christophe Rousset"
INDEX 01 00:00:00
FILE "05 - Acte quatrieme - 'A peine aux autels d'Hymenee' (Hypermnestre, Lyncee).wav" WAVE
TRACK 05 AUDIO
TITLE "Acte quatriиme - 'A peine aux autels d'Hymйnйe' (Hypermnestre, Lyncйe)"
PERFORMER "Christophe Rousset"
INDEX 01 00:00:00
FILE "06 - Acte quatrieme - 'Ma force m'abandonne' (Hypermnestre, Lyncee).wav" WAVE
TRACK 06 AUDIO
TITLE "Acte quatriиme - 'Ma force m'abandonne' (Hypermnestre, Lyncйe)"
PERFORMER "Christophe Rousset"
INDEX 01 00:00:00
FILE "07 - Acte quatrieme - 'Helas- Que ne puis-je te suivre' (Hypermnestre, Lyncee).wav" WAVE
TRACK 07 AUDIO
TITLE "Acte quatriиme - 'Hйlas- Que ne puis-je te suivre' (Hypermnestre, Lyncйe)"
PERFORMER "Christophe Rousset"
INDEX 01 00:00:00
FILE "08 - Acte quatrieme - 'Sort cruel-' (Hypermnestre, Lyncee).wav" WAVE
TRACK 08 AUDIO
TITLE "Acte quatriиme - 'Sort cruel-' (Hypermnestre, Lyncйe)"
PERFORMER "Christophe Rousset"
INDEX 01 00:00:00
FILE "09 - Acte quatrieme - 'Suivez-moi, Prince' (Hypermnestre, Lyncee, Pelagus).wav" WAVE
TRACK 09 AUDIO
TITLE "Acte quatriиme - 'Suivez-moi, Prince' (Hypermnestre, Lyncйe, Pйlagus)"
PERFORMER "Christophe Rousset"
INDEX 01 00:00:00
FILE "10 - Acte quatrieme - 'Arrete,implacable furie- ' (Hypermnestre, les Йpoux).wav" WAVE
TRACK 10 AUDIO
TITLE "Acte quatriиme - 'Arrete,implacable furie- ' (Hypermnestre, les Йpoux)"
PERFORMER "Christophe Rousset"
INDEX 01 00:00:00
FILE "11 - Acte cinquieme - 'Ou suis-je- ' (Hypermnestre).wav" WAVE
TRACK 11 AUDIO
TITLE "Acte cinquiиme - 'Ou suis-je- ' (Hypermnestre)"
PERFORMER "Christophe Rousset"
INDEX 01 00:00:00
FILE "12 - Acte cinquieme - 'Pere barbare' (Hypermnestre.wav" WAVE
TRACK 12 AUDIO
TITLE "Acte cinquiиme - 'Pиre barbare' (Hypermnestre"
PERFORMER "Christophe Rousset"
INDEX 01 00:00:00
FILE "13 - Acte cinquieme - 'Ma vengeance, est-elle remplie' (Hypermnestre, Danaus).wav" WAVE
TRACK 13 AUDIO
TITLE "Acte cinquiиme - 'Ma vengeance, est-elle remplie' (Hypermnestre, Danaьs)"
PERFORMER "Christophe Rousset"
INDEX 01 00:00:00
FILE "14 - Acte cinquieme - 'Gloire- Evan- Evohe- (Plancippe, les Danaides).wav" WAVE
TRACK 14 AUDIO
TITLE "Acte cinquiиme - 'Gloire- Evan- Evohй- (Plancippe, les Danaides)"
PERFORMER "Christophe Rousset"
INDEX 01 00:00:00
FILE "15 - Acte cinquieme - 'Mes filles, chers objets' (Danaus, les Danaides).wav" WAVE
TRACK 15 AUDIO
TITLE "Acte cinquiиme - 'Mes filles, chers objets' (Danaьs, les Danaides)"
PERFORMER "Christophe Rousset"
INDEX 01 00:00:00
FILE "16 - Acte cinquieme - 'Dieux- Auriez-vous trahi' (Danaus).wav" WAVE
TRACK 16 AUDIO
TITLE "Acte cinquiиme - 'Dieux- Auriez-vous trahi' (Danaьs)"
PERFORMER "Christophe Rousset"
INDEX 01 00:00:00
FILE "17 - Acte cinquieme - 'Seigneur, Lyncee, accourant (Danaus, Premier Officier, Deuxieme Officier).wav" WAVE
TRACK 17 AUDIO
TITLE "Acte cinquiиme - 'Seigneur, Lyncйe, accourant (Danaьs, Premier Officier, Deux..."
PERFORMER "Christophe Rousset"
INDEX 01 00:00:00
FILE "18 - Acte cinquieme - 'Tu t'applaudis du piege' (Hypermnestre, Lyncee, Danaus, Pelagus).wav" WAVE
TRACK 18 AUDIO
TITLE "Acte cinquiиme - 'Tu t'applaudis du piиge' (Hypermnestre, Lyncйe, Danaьs, Pйl..."
PERFORMER "Christophe Rousset"
INDEX 01 00:00:00
FILE "19 - Acte cinquieme - 'Mais du courroux du ciel' (Lyncee, le Peuple, les Danaides, les Demons).wav" WAVE
TRACK 19 AUDIO
TITLE "Acte cinquiиme - 'Mais du courroux du ciel' (Lyncйe, le Peuple, les Danaides,..."
PERFORMER "Christophe Rousset"
INDEX 01 00:00:00

Треклист

Disc 1:
1. Overture
Act I:
2. Toi par qui, sans terreur (Danaus, Lyncee, Chorus)
3. Descend du ciel (Chorus)
4. Interlude
5. Loin de nous, jalousie affreuse (Plancippe, Chorus)
6. Dance
7. Je vois, jeunes epouz (Danaus)
8. Jouissez du destin propice (Danaus)
9. Hypermnestre! (Lyncee, Hypermnestre)
10. Oublions tous ces jours de peine (Lyncee, Hypermnestre)
11. Descend du ciel (Chorus)
Act II:
12. Ou sommes-nous? O ciel! (The Danaids, Danaus, Hypermnestre)
13. Divinite, de sang avide (The Danaids, Hypermnestre, Danaus)
14. Je vous vois fremir de colere (Danaus, The Danaids)
15. Quand tes soeurs ont jure (Danaus, Hypermnestre)
16. Par les larmes dont votre fille (Hypermnestre)
17. Fille indigne de la lumiere (Danaus, Hypermnestre)
18. Ou suis-je? (Hypermnestre)
19. Foudre celeste! je t'appelle! (Hypermnestre)
Act III:
20. Celebrons a l'envi (Chorus)
21. Interlude
22. Descends dans le sein d'Amphitrite (Chorus of Bridegrooms)
23. Interlude
24. Aux dieux qui suivent l'hymenee (Danaus)
25. L'Amour sourit au doux vainqueur du Gange (Chorus)
26. Prends ce gage sacre (Lyncee, Hypermnestre, Danaus)
27. Rends-moi ton coeur, ta confiance (Lyncee)
28. Mon courage est au bout (Hypermnestre, Danaus)
29. Mon pere …mon epoux … Deux! (Hypermnestre, Lyncee)
30. Reprends tes esprits et les sens (Danaus)
31. Interlude
32. Pour nos devoirs montrons un meme zele (The Danaids)
33. L'Amour sourit (Chorus)
34. Pantomime
Disc 2:
Act IV:
1. Ecoutez-moi, mon pere (Hypermnestre, Danaus)
2. Le barbare, il me fuit (Hypermnestre)
3. Vous qui voyez l'exces de ma faiblesse (Hypermnestre)
4. Lyncee, a tes genouz (Lyncee, Hypermnestre)
5. A peine aux autels d'Hymenee (Hypermnestre, Lyncee)
6. Ma force m'abandonne (Hypermnestre, Lyncee)
7. Helas! que ne puis-je te suivre (Hypermnestre, Lyncee, Pelagus, Chorus of Husbands)
8. Sort cruel! (Hypermnestre, Lyncee)
9. Suivez-moi, Prince (Hypermnestre, Lyncee, Pelagus)
10. Arrete, arrete implacable fureur! (Hypermnestre, Chorus)
Act V:
11. Ou suis-je! ou vais-je? (Hypermnestre)
12. Pere barbare, arrache-moi (Hypermnestre)
13. Ma vengeance est-elle rempile? (Hypermnestre, Danaus)
14. Goire! Gloire! Evan! Evohe! (Chorus of Danaids, Plancippe, Danaus)
15. Mes filles, chers objects (Danaus, Chorus)
16. Dieux! auriez-vous trahi (Danaus)
17. Seigneur, Lyncee, accourant (Danaus, First Officer, Second Officer)
18. Tu t'applaudis du piege (Hypermnestre, Lyncee, Danaus, Pelagus, Third Officer, People)
19. Mais du courroux du ciel (Lyncee, Chorus)



Показать сообщения:    

Текущее время: 05-Дек 01:24

Часовой пояс: UTC + 3


Вы не можете начинать темы
Вы не можете отвечать на сообщения
Вы не можете редактировать свои сообщения
Вы не можете удалять свои сообщения
Вы не можете голосовать в опросах
Вы не можете прикреплять файлы к сообщениям
Вы не можете скачивать файлы