[TR24][OF] Joseph Haydn, Domenico Scarlatti - Chiaro e scuro: Piano Sonatas (Olivier Cave, performer) - 2015 (Piano, Classical)


Статистика раздачи [Обновить пиров]
Размер:  1.18 GB   |    Зарегистрирован:  10 месяцев 3 дня   |    Скачан:  3 раза

Полного источника не было: 1 месяц 7 дней

 
   
 
 
 

[Цитировать]

Joseph Haydn, Domenico Scarlatti - Chiaro e scuro
Формат записи/Источник записи: [TR24][OF]
Наличие водяных знаков: Нет
Год издания/переиздания диска: 2015
Жанр: Piano, Classical
Издатель(лейбл): Aeon
Продолжительность: 01:16:49
Исполнитель:
Olivier Cavé, piano.
Recorded on 4-6/01/2015, Sendesaal, Bremen.
Контейнер: FLAC (*.flac)
Тип рипа: tracks
Разрядность: 24/96
Количество каналов: 2.0
Источник: ProStudioMasters

DR-Report

foobar2000 1.3.6 / Замер динамического диапазона (DR) 1.1.1
Дата отчёта: 2016-02-03 03:38:17
--------------------------------------------------------------------------------
Анализ: Olivier Cavé / Haydn & Scarlatti: Chiaro E Scuro
--------------------------------------------------------------------------------
DR Пики RMS Продолжительность трека
--------------------------------------------------------------------------------
DR15 -3.40 дБ -21.64 дБ 5:50 01-Keyboard Sonata No. 50 in D Major, Op. 30 No. 3, Hob. XVI:37: I. Allegro con brio
DR15 -8.16 дБ -30.47 дБ 3:50 02-Keyboard Sonata No. 50 in D Major, Op. 30 No. 3, Hob. XVI:37: II. Largo e sostenuto
DR13 -0.55 дБ -23.05 дБ 3:07 03-Keyboard Sonata No. 50 in D Major, Op. 30 No. 3, Hob. XVI:37: III. Finale. Presto ma non troppo
DR12 -7.24 дБ -23.71 дБ 2:55 04-Keyboard Sonata in G Major, Kk. 425
DR13 -6.55 дБ -23.01 дБ 5:14 05-Keyboard Sonata No. 13 in G Major, Hob. XVI:6: I. Allegro
DR13 -9.64 дБ -27.29 дБ 4:28 06-Keyboard Sonata No. 13 in G Major, Hob. XVI:6: II. Menuetto
DR11 -11.19 дБ -27.40 дБ 3:49 07-Keyboard Sonata No. 13 in G Major, Hob. XVI:6: III. Adagio
DR12 -4.61 дБ -21.33 дБ 2:28 08-Keyboard Sonata No. 13 in G Major, Hob. XVI:6: IV. Finale. Allegro molto
DR14 -8.01 дБ -26.40 дБ 4:00 09-Keyboard Sonata in E Major, Kk. 495
DR13 -8.45 дБ -24.11 дБ 3:07 10-Keyboard Sonata No. 6 in C Major, Hob. XVI:10: I. Moderato
DR12 -9.96 дБ -25.34 дБ 2:56 11-Keyboard Sonata No. 6 in C Major, Hob. XVI:10: II. Menuet - Trio
DR13 -5.70 дБ -22.16 дБ 2:42 12-Keyboard Sonata No. 6 in C Major, Hob. XVI:10: III. Finale. Presto
DR12 -7.26 дБ -21.88 дБ 2:04 13-Keyboard Sonata in G Major, Kk. 432
DR14 -6.35 дБ -24.21 дБ 4:24 14-Keyboard Sonata No. 38 in F Major, Op. 13 No. 3, Hob. XVI:23: I. Allegro
DR12 -10.02 дБ -27.66 дБ 5:45 15-Keyboard Sonata No. 38 in F Major, Op. 13 No. 3, Hob. XVI:23: II. Adagio
DR13 -5.83 дБ -23.10 дБ 3:34 16-Keyboard Sonata No. 38 in F Major, Op. 13 No. 3, Hob. XVI:23: III. Finale. Presto
DR12 -6.12 дБ -21.89 дБ 2:12 17-Keyboard Sonata in A Major, Kk. 342
DR13 -5.61 дБ -23.66 дБ 4:13 18-Keyboard Sonata No. 39 in D Major, Op. 13 No. 4, Hob. XVI:24: I. Allegro
DR12 -11.35 дБ -30.72 дБ 3:46 19-Keyboard Sonata No. 39 in D Major, Op. 13 No. 4, Hob. XVI:24: II. Adagio
DR15 -2.85 дБ -21.94 дБ 2:07 20-Keyboard Sonata No. 39 in D Major, Op. 13 No. 4, Hob. XVI:24: III. Finale. Presto
DR13 -6.50 дБ -23.15 дБ 5:17 21-Keyboard Sonata in B-Flat Minor, Kk. 128
--------------------------------------------------------------------------------
Количество треков: 21
Реальные значения DR: DR13
Частота: 96000 Гц
Каналов: 2
Разрядность: 24
Битрейт: 2157 кбит/с
Кодек: FLAC
================================================================================

Треклист

Joseph Haydn
Sonata in D major, Hob XVI / 37:
1 I Allegro con brio 5’49
2 II Largo e sostenuto 3’50
3 III Finale. Presto ma non troppo 3’06
Domenico Scarlatti
4 Sonata in G major, Kk 425
Joseph Haydn
Partita in G major, Hob XVI / 6:
5 I Allegro 5’13
6 II Menuetto 4’27
7 III Adagio 3’48
8 IV Allegro molto 2’28
Domenico Scarlatti
9 Sonata in E major, Kk 495
Joseph Haydn
Divertimento in C major, Hob XVI / 10:
10 I Moderato 3’07
11 II Menuet 2’56
12 III Finale. Presto 2’41
Domenico Scarlatti
13 Sonata in G major, Kk 432
Joseph Haydn
Sonata in F major, Hob XVI / 23:
14 I (Allegro moderato) 4’24
15 II Adagio 5’44
16 III Finale. Presto 3’33
Domenico Scarlatti
17 Sonata in A major, Kk 342
Joseph Haydn
Sonata in D major, Hob XVI / 24:
18 I Allegro 4’13
19 II Adagio 3’46
20 III Finale. Presto 2’06
Domenico Scarlatti
21 Sonata in B-Flat minor, Kk 128 5’17
[teatrix.ru].t22876.torrent 
Торрент: Зарегистрирован [ 2016-03-21 00:38 ] · 115E669C7B10E3B74F93C229DDB1A97007D4AFF2

Скачать .torrent

Скачать

15 KB

Статус: проверено
Скачан: 3 раз
Размер: 1.18 GB
terms.php



Быстрый ответ

Имя:

      
Для отправки сообщений необходимо включить JavaScript
Показать сообщения:    

Текущее время: 24-Янв 12:13

Часовой пояс: UTC + 3


Вы можете начинать темы
Вы можете отвечать на сообщения
Вы не можете редактировать свои сообщения
Вы не можете удалять свои сообщения
Вы не можете голосовать в опросах
Вы не можете прикреплять файлы к сообщениям
Вы можете скачивать файлы