[TR24][SM][OF] Alexander Scriabin - Complete Piano Sonatas (Varduhi Yeritsyan) - 2015 (Classical)


Статистика раздачи [Обновить пиров]
Размер:  1.94 GB   |    Зарегистрирован:  8 месяцев 13 дней   |    Скачан:  0 раз

Полного источника не было: Никогда

 
   
 
 
 

[Цитировать]

Alexander Scriabin - Complete Piano Sonatas
Композитор: Alexander Scriabin (1872-1915)
Год издания: 2015
Жанр: Classical
Издатель (лейбл)/ссылка на официальность: Paraty Productions / PTY915136
Продолжительность: 02:08:34
Наличие сканов: да
Контейнер: FLAC (*.flac)
Тип рипа: tracks
Разрядность: 24bit / 96,0kHz
Количество каналов: 2.0
Источник: скачано из сети (wath)-Исполнители:
Varduhi Yeritsyan

Треклист:

CD1
Piano Sonata No.10 Op.70 -
01. Moderato (12:31)
Piano Sonata No.4 Op.30
02. I. Andante (02:44)
03. II. Prestissimo volando (05:04)
Piano Sonata No.6 Op.62
04. Modere (11:53)
Piano Sonata No.3 Op.23
05. I. Drammatico (05:49)
06. II. Allegretto (02:29)
07. III. Andante (04:09)
08. IV. Presto con fuoco (06:14)
Piano Sonata No.7 Op.64 White Mass
09. Allegro (11:43)
CD2
Piano Sonata No.8 Op.66
01. Lento (13:14)
Piano Sonata No.9 Op.68 Black Mass
02. Moderato quasi Andante (08:17)
Piano Sonata No.1 Op.6
03. I. Allegro con fuoco (07:31)
04. II. - (04:51)
05. III. Presto (03:41)
06. IV. Funebre (05:28)
Piano Sonata No.2 Op.19
07. I. Andante (07:24)
08. II. Presto (04:13)
Piano Sonata No.5 Op.53
09. Allegro impetuoso con stravaganza (11:19)

Динамический диапазон - DR12:

foobar2000 1.3.2 / Замер динамического диапазона (DR) 1.1.1
Дата отчёта: 2016-02-03 17:53:14
--------------------------------------------------------------------------------
Анализ: Varduhi Yeritsyan / Scriabin. Complete Piano Sonatas
--------------------------------------------------------------------------------
DR Пики RMS Продолжительность трека
--------------------------------------------------------------------------------
DR11 -1.43 дБ -16.71 дБ 7:31 01-Piano Sonata No.1 Op.6 - I. Allegro con fuoco
DR12 -4.68 дБ -23.35 дБ 4:51 02-Piano Sonata No.1 Op.6 - II. -
DR11 -1.43 дБ -16.46 дБ 3:41 03-Piano Sonata No.1 Op.6 - III. Presto
DR13 -1.43 дБ -20.34 дБ 5:28 04-Piano Sonata No.1 Op.6 - IV. Funebre
DR13 -1.43 дБ -19.78 дБ 7:24 05-Piano Sonata No.2 Op.19 - I. Andante
DR12 -1.43 дБ -16.28 дБ 4:13 06-Piano Sonata No.2 Op.19 - II. Presto
DR12 -1.43 дБ -16.56 дБ 5:49 07-Piano Sonata No.3 Op.23 - I. Drammatico
DR11 -1.43 дБ -16.43 дБ 2:29 08-Piano Sonata No.3 Op.23 - II. Allegretto
DR13 -4.59 дБ -22.30 дБ 4:09 09-Piano Sonata No.3 Op.23 - III. Andante
DR11 -1.43 дБ -16.05 дБ 6:14 10-Piano Sonata No.3 Op.23 - IV. Presto con fuoco
DR13 -9.14 дБ -26.78 дБ 2:44 11-Piano Sonata No.4 Op.30 - I. Andante
DR10 -1.43 дБ -14.80 дБ 5:04 12-Piano Sonata No.4 Op.30 - II. Prestissimo volando
DR10 -1.43 дБ -16.33 дБ 11:19 13-Piano Sonata No.5 Op.53
DR12 -1.43 дБ -18.54 дБ 11:53 14-Piano Sonata No.6 Op.62
DR11 -1.43 дБ -17.49 дБ 11:43 15-Piano Sonata No.7 Op.64 White Mass
DR13 -1.43 дБ -18.22 дБ 13:14 16-Piano Sonata No.8 Op.66
DR11 -1.43 дБ -17.92 дБ 8:17 17-Piano Sonata No.9 Op.68 Black Mass
DR13 -1.43 дБ -19.19 дБ 12:31 18-Piano Sonata No.10 Op.70
--------------------------------------------------------------------------------
Количество треков: 18
Реальные значения DR: DR12
Частота: 96000 Гц
Каналов: 2
Разрядность: 24
Битрейт: 2119 кбит/с
Кодек: FLAC
================================================================================
-mp3
[teatrix.ru].t22878.torrent 
Торрент: Зарегистрирован [ 2016-03-21 00:38 ] · 26BB65D5CCF4AB0DF65CBCFB87EC4DC8EDB4B719

Скачать .torrent

Скачать

22 KB

Статус: проверено
Скачан: 0 раз
Размер: 1.94 GB
terms.php



Быстрый ответ

Имя:

      
Для отправки сообщений необходимо включить JavaScript
Показать сообщения:    

Текущее время: 03-Дек 12:40

Часовой пояс: UTC + 3


Вы можете начинать темы
Вы можете отвечать на сообщения
Вы не можете редактировать свои сообщения
Вы не можете удалять свои сообщения
Вы не можете голосовать в опросах
Вы не можете прикреплять файлы к сообщениям
Вы можете скачивать файлы