Война и Голливуд: 1939-1945 (эпизоды 1-3 из 3) / La guerre d'Hollywood: 1939-1945 (Мишель Виотт / Michel Viotte) [2013, документальный, кинематограф, DVB] Original (Fre) + Sub (Rus, Fre)


Статистика раздачи [Обновить пиров]
Размер:  3.3 GB   |    Зарегистрирован:  8 месяцев 20 дней   |    Скачан:  0 раз

Полного источника не было: Никогда

 
   
 
 
 

[Цитировать]

Война и Голливуд: 1939-1945
La guerre d'Hollywood: 1939-1945- Дата/Год выпуска: 2013
Страна: Франция
Жанр: документальный, кинематограф
Продолжительность: 02:32:30 (3 по ~00:50:00)
Перевод: Субтитры
Доп. инфо о переводе: русский перевод И.Рыбкиной, Éclair Media
Русские субтитры: есть
Формат субтитров: prerendered (IDX+SUB), softsub (SRT)
Доп. информация о субтитрах: русские, нидерландские, румынские - (IDX+SUB); французские - (SRT)
Оригинальная аудиодорожка: французский
Режиссер: Мишель Виотт / Michel Viotte
В ролях: Филипп Торретон / Philippe Torreton (voice)
Телеканал: TV5MONDE Europe
Описание: Во время Второй мировой войны Голливуд оказал поддержку правительству. Индустрия кино задействовала всех продюсеров, сценаристов, актеров, студийных работников и звезд. Мощная пропагандистская машина набирала обороты, поддерживая союзников в борьбе с нацистской Германией, фашистской Италией и Японией. Гражданская сознательность Голливуда достойна уважения. Ничего подобного в истории еще не было. (из предисловия к фильму)
Доп. информация: Hot Bird (13.0°E) DVB-S. Во время нефранцузской речи вшитые французские субтитры.

качество: DVB
формат: MKV
Видео: MPEG Video 2, 720x576 (16:9), 25 fps, ~2828 kbps avg, 0.273 bit/pixel
Аудио: MPEG Audio 2, 2 ch, 48 kHz, 192 kbps - французский

Список выпусков/серий

01. В едином порыве / Unis sous le drapeau
02. Диктатуры / Face aux dictatures
03. На всех фронтах / Sur tous les fronts

Информация по редактированию

Topfield SRP-2410 – запись спутниковой трансляции DVB-S (.rec)
ProjectX 0.91.0.10 - разбор контейнера, удаление рекламы и доп. информации
BD Sup2Sub 5.1.2 – конвертация DVB-субтитров (IFO+SUP) -> (IDX+SUB)
MKVToolNix GUI 8.8.0 – сборка в контейнер MKV
MkvTagger – редактирование тегов

MediaInfo

Общее
Уникальный идентификатор : 181447149507830179249233510328022221037 (0x88817329C4AFC2FCA96217AD294A40ED)
Полное имя : F:\My Torrents 3\[apreder]La_guerre_d'Hollywood_1939-1945(2013)\01. Unis_sous_le_drapeau(2013)DVB.mkv
Формат : Matroska
Версия формата : Version 2
Размер файла : 1,07 Гбайт
Продолжительность : 49 м.
Режим общего битрейта : Переменный
Общий поток : 3082 Кбит/сек
Название фильма : La guerre d'Hollywood 1939/1945
Дата выпуска : 2013-12-13
Дата кодирования : UTC 2016-02-06 07:16:01
Программа кодирования : mkvmerge v8.8.0 ('Wind at my back') 64bit
Библиотека кодирования : libebml v1.3.3 + libmatroska v1.4.4
Обложка : Yes
Attachments : cover.jpg / cover_small.jpg
ACTOR : Philippe Torreton
DIRECTOR : Michel Viotte
GENRE : Documentary
IMDB : tt4964552
KEYWORDS : rutracker.org
LAW_RATING : 16+
SUMMARY : ep.01 Unis sous le drapeau
Видео
Идентификатор : 1
Формат : MPEG Video
Версия формата : Version 2
Профиль формата : Main@Main
Параметр BVOP формата : Да
Параметр матрицы формата : Выборочная
Параметр GOP формата : M=4, N=12
Format_Settings_PictureStructure : Frame
Идентификатор кодека : V_MPEG2
Идентификатор кодека/Информация : MPEG 1 or 2 Video
Продолжительность : 49 м.
Вид битрейта : Переменный
Битрейт : 2828 Кбит/сек
Ширина : 720 пикселей
Высота : 576 пикселей
Соотношение сторон : 16:9
Режим частоты кадров : Постоянный
Частота кадров : 25,000 кадров/сек
Стандарт вещания : PAL
Цветовое пространство : YUV
Субдискретизация насыщенности : 4:2:0
Битовая глубина : 8 бит
Тип развёртки : Чересстрочная
Порядок развёртки : Верхнее поле первое
Метод сжатия : С потерями
Бит/(Пиксели*Кадры) : 0.273
Временной код первого кадра : 00:00:00:00
Оригинал временного кода : Group of pictures header
Размер потока : 1009 Мбайт (92%)
Default : Да
Forced : Нет
Аудио
Идентификатор : 2
Формат : MPEG Audio
Версия формата : Version 1
Профиль формата : Layer 2
Режим : Joint stereo
Расширение режима : Intensity Stereo + MS Stereo
Идентификатор кодека : A_MPEG/L2
Идентификатор кодека/Подсказка : MP2
Продолжительность : 49 м.
Вид битрейта : Постоянный
Битрейт : 192 Кбит/сек
Каналы : 2 канала
Частота : 48,0 КГц
Метод сжатия : С потерями
Размер потока : 68,5 Мбайт (6%)
Язык : French
Default : Да
Forced : Нет
Текст #1
Идентификатор : 3
Формат : VobSub
Идентификатор кодека : S_VOBSUB
Идентификатор кодека/Информация : Picture based subtitle format used on DVDs
Язык : Russian
Default : Нет
Forced : Нет
Текст #2
Идентификатор : 4
Формат : UTF-8
Идентификатор кодека : S_TEXT/UTF8
Идентификатор кодека/Информация : UTF-8 Plain Text
Язык : French
Default : Нет
Forced : Нет
Текст #3
Идентификатор : 5
Формат : VobSub
Идентификатор кодека : S_VOBSUB
Идентификатор кодека/Информация : Picture based subtitle format used on DVDs
Язык : Dutch
Default : Нет
Forced : Нет
Текст #4
Идентификатор : 6
Формат : VobSub
Идентификатор кодека : S_VOBSUB
Идентификатор кодека/Информация : Picture based subtitle format used on DVDs
Язык : Romanian
Default : Нет
Forced : Нет

Скриншоты


Резервные скриншоты


-

Внимание! Раздача ведётся путём добавления новых выпусков

Внимание! Раздача ведётся путём добавления новых выпусков; при каждом добавлении создаётся новый торрент. Чтобы начать докачку нового выпуска, пользователям необходимо сделать следующее:
(1) остановить скачивание,
(2) удалить старый торрент у себя из клиента (старые серии удалять не надо),
(3) скачать новый торрент и запустить его у себя в клиенте вместо старого, при этом указать клиенту путь в старую папку куда и должно происходить скачивание новых выпусков.
Ваш клиент при этом должен произвести хеширование (проверку) старой папки (если не производит сам - помогите ему сделать это). В результате он будет докачивать только те выпуски, которых у Вас ещё нет. Старые выпуски при этом не удаляются, а продолжают раздаваться!
Eсли Вы уже удалили старые выпуски, то предотвратить их повторную закачку можно, сняв галочки в соответствующих местах при запуске нового торрента. По возможности, желательно не удалять старые выпуски как можно дольше, чтобы релизёр не только продолжал раздавать старые выпуски, но и смог сконцентрироваться на новых.
-
[teatrix.ru].t22880.torrent 
Торрент: Зарегистрирован [ 2016-03-21 00:37 ] · CA02CF92CB2F940B07216320A8F8319EDA2BC887

Скачать .torrent

Скачать

17 KB

Статус: проверено
Скачан: 0 раз
Размер: 3.3 GB
terms.php



Показать сообщения:    

Текущее время: 10-Дек 06:08

Часовой пояс: UTC + 3


Вы не можете начинать темы
Вы не можете отвечать на сообщения
Вы не можете редактировать свои сообщения
Вы не можете удалять свои сообщения
Вы не можете голосовать в опросах
Вы не можете прикреплять файлы к сообщениям
Вы можете скачивать файлы