[TR24][OF] Roberto Alagna, Aleksandra Kurzak, London Orchestra, Yvan Cassar - My Life Is An Opera (Ma vie est un opera) - 2015 (opera, vocal)


Статистика раздачи [Обновить пиров]
Размер:  1.05 GB   |    Зарегистрирован:  8 месяцев 21 день   |    Скачан:  1 раз

Полного источника не было: 7 месяцев 1 день

 
   
 
 
 

[Цитировать]

Roberto Alagna, Aleksandra Kurzak, London Orchestra, Yvan Cassar / My Life Is An Opera (Ma vie est un opera)
Формат записи/Источник записи: [TR24][OF]
Наличие водяных знаков: Нет
Год издания/переиздания диска: 2015
Жанр: opera, vocal
Издатель(лейбл): Deutsche Grammophon
Продолжительность: 57 minutes
Наличие сканов в содержимом раздачи: Нет
Треклист:
1 Ah, Manon, mi tradisce…MANON LESCAUT (Giacomo Puccini) 2’52
2 Donna non vidi mai…MANON LESCAUT (Giacomo Puccini) 2’41
3 Pour moi ce jour est tout mystère… (Kuda, Kuda) EUGÈNE ONÉGUINE (Piotr Ilitch Tchaïkovski) 5’47
4 Faiblesse de la race humaine… Inspirez-moi, race divine…LA REINE DE SABA (Charles Gounod) 5’00
5 A la luz de la luna Duo avec Aleksandra Kurzak (Anton y Michelena) 3’48
6 La danza TARENTELLE NAPOLITAINE (Gioacchino Rossini) 3’23
7 Esprits, gardiens de ces lieux vénérés...SIGURD (Ernest Reyer) 4’32
8 Un tenero cuore… (1ère partie) Duo avec Aleksandra Kurzak ROBERTO DEVEREUX (Gaetano Donizetti) 3’25
9 Cabaletta : Un lampo, un lampo orribile… (2e partie) Duo avec Aleksandra Kurzak ROBERTO DEVEREUX (Gaetano Donizetti) 2’46
10 Addio fiorito asil…MADAME BUTTERFLY (Giacomo Puccini) 2’04
11 Ne pouvant réprimer… Adieu donc… HÉRODIADE (Jules Massenet) 4’55
12 Che farò senza Euridice…ORPHÉE ET EURIDYCE (Christoph Willibald Gluck) 3’52
13 Magische Töne… DIE KÖNIGIN VON SABA (Karl Goldmark) 4’00
14 Il est dix heures… Encore six heures… LE DERNIER JOUR D’UN CONDAMNÉ (David Alagna) 3’59
15 Introduction I PagliacciI PAGLIACCI (Ruggero Leoncavallo) 1’10
16 Recitar… Vesti la giubba… I PAGLIACCI (Ruggero Leoncavallo) 3’16
Контейнер: FLAC (*.flac)
Тип рипа: tracks
Разрядность: 24/96
Формат: flac
Количество каналов: 2.0

Лог проверки качества

foobar2000 1.2.2 / Замер динамического диапазона (DR) 1.1.1
Дата отчёта: 2016-02-06 19:57:24
--------------------------------------------------------------------------------
Анализ: Roberto Alagna/Alexksandra Kurzak/London Orchestra / My Life Is An Opera: Roberto Alagna (1-3)
Roberto Alagna/London Orchestra / My Life Is An Opera: Roberto Alagna (4-16)
--------------------------------------------------------------------------------
DR Пики RMS Продолжительность трека
--------------------------------------------------------------------------------
DR10 0.00 дБ -15.33 дБ 3:48 ?-A La Luz De La Luna
DR14 -0.27 дБ -19.80 дБ 3:26 ?-Roberto Devereux / Act 1: Un tenero cuore
DR10 -0.01 дБ -14.33 дБ 2:46 ?-Roberto Devereux / Act 1: Cabaletta : Un lampo, un lampo orribile
DR11 -0.26 дБ -16.98 дБ 2:51 ?-Manon Lescaut / Act 2: Ah ! Manon, mi tradisce
DR11 0.00 дБ -16.08 дБ 2:41 ?-Manon Lescaut / Act 1: Donna non vidi mai
DR13 -0.06 дБ -18.52 дБ 5:47 ?-Eugene Onegin, Op.24 / Act 2: Pour moi ce jour est tout mystère...
DR12 -0.09 дБ -16.16 дБ 5:00 ?-La Reine de Saba / Act 2: Faiblesse de la race humaine. Inspirez-moi, race divine…
DR13 0.00 дБ -16.48 дБ 3:23 ?-La Danza - Tarentelle Napolitaine
DR13 -0.28 дБ -20.10 дБ 4:32 ?-Sigurd / Act 2: Esprits gardiens de ces lieux…
DR11 -0.01 дБ -15.56 дБ 2:04 ?-Madama Butterfly / Act 2: Addio fiorito asil
DR11 -0.01 дБ -16.45 дБ 4:55 ?-Hérodiade: Ne pouvant réprimer… Adieu donc
DR13 0.00 дБ -18.66 дБ 3:52 ?-Orfeo ed Euridice (Orphée et Eurydice), Wq. 30 - Arr. D. Alagna: Che faro senza Euridice
DR12 -1.74 дБ -18.43 дБ 4:00 ?-Die Königin von Saba: Magishe Töne
DR11 0.00 дБ -15.73 дБ 3:59 ?-Le dernier jour d'un condamné / Act 2: Il est dix heures… Encore six heures...
DR11 -1.50 дБ -19.30 дБ 1:10 ?-Pagliacci / Prologue: Introduction
DR12 0.00 дБ -15.35 дБ 3:13 ?-Pagliacci / Act 1: Recitar... Vesti la giubba
--------------------------------------------------------------------------------
Количество треков: 16
Реальные значения DR: DR12
Частота: 96000 Гц
Каналов: 2
Разрядность: 24
Битрейт: 2626 кбит/с
Кодек: FLAC
================================================================================
Источник (релизер): http://www.prestoclassical.co.uk/r/DG/4811524
Оркестр: London Orchestra
Композитор: Alagna, Donizetti, Gluck, Goldmark, Gounod, Leoncavallo, Massenet, Puccini, Reyer, Rossini, Tchaikovsky (Чайковский )
Дирижер: Yvan Cassar
Исполнитель: Roberto Alagna, Aleksandra Kurzak
Доп. информация:
Includes PDF booklet
Буклет в формате PDF
[teatrix.ru].t22881.torrent 
Торрент: Зарегистрирован [ 2016-03-21 00:37 ] · 29B830C5BB8537C3CB19BD2BE2C0CA15162CDEEC

Скачать .torrent

Скачать

12 KB

Статус: проверено
Скачан: 1 раз
Размер: 1.05 GB
terms.php



Быстрый ответ

Имя:

      
Для отправки сообщений необходимо включить JavaScript
Показать сообщения:    

Текущее время: 11-Дек 01:27

Часовой пояс: UTC + 3


Вы можете начинать темы
Вы можете отвечать на сообщения
Вы не можете редактировать свои сообщения
Вы не можете удалять свои сообщения
Вы не можете голосовать в опросах
Вы не можете прикреплять файлы к сообщениям
Вы можете скачивать файлы