[TR24][OF] Jean Sibelius - Violin Concertos (Alexander Glazunov / Александр Глазунов, Esther Yoo, Vladimir Ashkenazy / Владимир Ашкенази) - 2016 (Classical, Concert for Violin and Orchestra)


Статистика раздачи [Обновить пиров]
Размер:  1.15 GB   |    Зарегистрирован:  8 месяцев 15 дней   |    Скачан:  1 раз

Полного источника не было: 22 дня

 
   
 
 
 

[Цитировать]

Alexander Glazunov, Jean Sibelius - Violin Concertos
Формат записи/Источник записи: [TR24][OF]
Наличие водяных знаков: Нет
Год издания/переиздания диска: 2016
Жанр: Concert for Violin and Orchestra, Classical
Издатель(лейбл): Deutsche Grammophon
Продолжительность: 01:06:57
Исполнитель:
Esther Yoo, violin,
Philharmonia Orchestra,
Vladimir Ashkenazy, Conductor.
Контейнер: FLAC (*.flac)
Тип рипа: tracks
Разрядность: 24/96
Количество каналов: 2.0
Источник: Groovers

DR-Report

foobar2000 1.3.6 / Замер динамического диапазона (DR) 1.1.1
Дата отчёта: 2016-02-07 02:10:59
--------------------------------------------------------------------------------
Анализ: Esther Yoo, Philharmonia Orchestra, Vladimir Ashkenazy / Sibelius, Glazunov Violin Concertos
--------------------------------------------------------------------------------
DR Пики RMS Продолжительность трека
--------------------------------------------------------------------------------
DR17 -0.03 дБ -22.19 дБ 20:09 01-Glazunov: Violin Concerto in A minor, Op.82
DR14 -0.03 дБ -20.17 дБ 17:03 02-Sibelius: Violin Concerto in D minor, Op.47 - 1. Allegro moderato
DR13 -0.03 дБ -19.27 дБ 9:00 03-Sibelius: Violin Concerto in D minor, Op.47 - 2. Adagio di molto
DR13 -0.03 дБ -18.82 дБ 7:59 04-Sibelius: Violin Concerto in D minor, Op.47 - 3. Allegro, ma non tanto
DR15 -8.38 дБ -26.83 дБ 2:14 05-Sibelius: Suite For Violin And String Orchestra, Op.117 - 1. Country Scenery
DR14 -8.83 дБ -28.98 дБ 3:41 06-Sibelius: Suite For Violin And String Orchestra, Op.117 - 2. Evening in Spring
DR15 -9.40 дБ -29.68 дБ 2:00 07-Sibelius: Suite For Violin And String Orchestra, Op.117 - 3. In the Summer
DR15 -0.03 дБ -22.11 дБ 4:56 08-Glazunov: Grand Adagio
--------------------------------------------------------------------------------
Количество треков: 8
Реальные значения DR: DR15
Частота: 96000 Гц
Каналов: 2
Разрядность: 24
Битрейт: 2418 кбит/с
Кодек: FLAC
================================================================================

Треклист

1. Alexander Glazunov: Violin Concerto in A minor, Op.82 (20:08)
Jean Sibelius:
Violin Concerto in D minor, Op.47:
2. I. Allegro moderato (17:03)
3. II Adagio di molto (9:00)
4. III. Allegro, ma non tanto (7:58)
Suite For Violin And String Orchestra, Op.117:
5. I. Country Scenery (2:14)
6. II Evening in Spring (3:40)
7. III. In the Summer (1:59)
8. Alexander Glazunov: Grand Adagio (4:55)
[teatrix.ru].t22882.torrent 
Торрент: Зарегистрирован [ 2016-03-21 00:37 ] · 96298A83DBA094359921A07E46162F1DF43C668F

Скачать .torrent

Скачать

13 KB

Статус: проверено
Скачан: 1 раз
Размер: 1.15 GB
terms.php



Быстрый ответ

Имя:

      
Для отправки сообщений необходимо включить JavaScript
Показать сообщения:    

Текущее время: 05-Дек 05:32

Часовой пояс: UTC + 3


Вы можете начинать темы
Вы можете отвечать на сообщения
Вы не можете редактировать свои сообщения
Вы не можете удалять свои сообщения
Вы не можете голосовать в опросах
Вы не можете прикреплять файлы к сообщениям
Вы можете скачивать файлы