[TR24][SM][OF] Schumann & Saint-Saens · Cello Concertos in A Minor · Jacqueline du Pre, Daniel Barenboim, New Philharmonia Orchestra - 1969 {2011 Remaster} (Classical)


Статистика раздачи [Обновить пиров]
Размер:  902 MB   |    Зарегистрирован:  8 месяцев 16 дней   |    Скачан:  0 раз

Полного источника не было: Никогда

 
   
 
 
 

[Цитировать]

·
·

Jacqueline du Pré
Daniel Barenboim

New Philharmonia Orchestra
Жанр: Classical, Concerto
Носитель: Official Digital Download
Год издания диска: Ⓟ 1969, 2011 EMI Records Ltd.
Год переиздания диска: © 2012 EMI Records Ltd.
Номер по каталогу: ASD 2498
Продолжительность: 45:33
Наличие сканов в содержимом раздачи: cover art
Контейнер: FLAC (*.flac)
Разрядность: 24/96
Количество каналов: 2.0
Формат: tracks
Источник: HDtracks
Pелизер: WEB (thanks to the original customer)

Треклист

Robert Schumann (1810-1856)
Cello Concerto in A Minor Op.129
01 Nicht zu schnell - 12:20
02 Langsam - Etwas lebhafter - Schneller - 4:39
03 Sehr lebhaft - (Cadenza) - Im Tempo - Schneller 8:26
Camille Saint-Saëns (1835-1921)
Cello Concerto No. 1 in A Minor Op.33
04 Allegro non troppo - 5:47
05 Allegretto con moto - 6:40
06 Un peu moins vite 7:41

Dynamic Range Meter

foobar2000 1.2.6 / Dynamic Range Meter 1.1.1
log date: 2015-10-09 23:31:35
--------------------------------------------------------------------------------
Analyzed: Jacqueline du Pré, New Philharmonia Orchestra, Daniel Barenboim / Schumann & Saint-Saëns: Cello Concertos
--------------------------------------------------------------------------------
DR Peak RMS Duration Track
--------------------------------------------------------------------------------
DR13 -1.43 dB -20.31 dB 12:20 01-Cello Concerto in A Minor, Op.129: Nicht zu schnell -
DR12 -4.94 dB -24.05 dB 4:39 02-Cello Concerto in A Minor, Op.129: Langsam - Etwas lebhafter - Schneller -
DR13 -0.39 dB -18.27 dB 8:26 03-Cello Concerto in A Minor, Op.129: Sehr lebhaft - (Cadenza) - Im Tempo - Schneller
DR14 -0.39 dB -20.07 dB 5:47 04-Cello Concerto No. 1 in A Minor, Op.33: Allegro non troppo -
DR15 -0.39 dB -22.28 dB 6:41 05-Cello Concerto No. 1 in A Minor, Op.33: Allegretto con moto -
DR11 -0.38 dB -17.11 dB 7:42 06-Cello Concerto No. 1 in A Minor, Op.33: Un peu moins vite
--------------------------------------------------------------------------------
Number of tracks: 6
Official DR value: DR13
Samplerate: 96000 Hz
Channels: 2
Bits per sample: 24
Bitrate: 2791 kbps
Codec: FLAC
================================================================================
[teatrix.ru].t22883.torrent 
Торрент: Зарегистрирован [ 2016-03-21 00:37 ] · 24113DA3514CA9A893D9759949CBA7FC02A52D27

Скачать .torrent

Скачать

19 KB

Статус: проверено
Скачан: 0 раз
Размер: 902 MB
terms.php



Быстрый ответ

Имя:

      
Для отправки сообщений необходимо включить JavaScript
Показать сообщения:    

Текущее время: 06-Дек 17:10

Часовой пояс: UTC + 3


Вы можете начинать темы
Вы можете отвечать на сообщения
Вы не можете редактировать свои сообщения
Вы не можете удалять свои сообщения
Вы не можете голосовать в опросах
Вы не можете прикреплять файлы к сообщениям
Вы можете скачивать файлы