Приличная женщина: История Мэри Миллингтон / Respectable - The Mary Millington Story (Саймон Шеридан / Simon Sheridan) [2016, Док. фильм, SATRip]


Статистика раздачи [Обновить пиров]
Размер:  618 MB   |    Зарегистрирован:  8 месяцев 20 дней   |    Скачан:  2 раза

Полного источника не было: 3 дня

 
   
 
 
 

[Цитировать]

Приличная женщина: История Мэри Миллингтон / Respectable - The Mary Millington Story
Дата/Год выпуска: 2016
Страна: Великобритания
Жанр: Док. фильм
Продолжительность: 01:47:47
Перевод: Субтитры
Русские субтитры: есть
Формат субтитров: hardsub (неотключаемые)
Оригинальная аудиодорожка: английский
Режиссер: Саймон Шеридан / Simon Sheridan
Описание: Документальная лента, рассказывающая о бурной, но очень короткой жизни британской модели и порнозвезды "Мэри Миллингтон"
SATRip от : Твид
Доп. информация: Любезно предоставлено клубом Fenix
Сэмпл: http://multi-up.com/1088141
качество: SATRip
формат: AVI
Видео: XviD, 664 kb/s, 640x480, 25 fps, 0.087 bits/pixel
Аудио: 0x0055(MP3) ID'd as MPEG-1 Layer 3, 128 kb/s (2/ch, stereo) CBR, 48000 Hz - Английский

MediaInfo

Общее
Полное имя : D:\Fillms-1\Маrу Millington.SAT-rip.by.Твид.fenixclub.avi
Формат : AVI
Формат/Информация : Audio Video Interleave
Размер файла : 618 Мбайт
Продолжительность : 1 ч. 47 м.
Общий поток : 801 Кбит/сек
Видео
Идентификатор : 0
Формат : MPEG-4 Visual
Профиль формата : Advanced Simple@L5
Параметр BVOP формата : 2
Параметр QPel формата : Нет
Параметр GMC формата : Без точки перехода
Параметр матрицы формата : Default (H.263)
Идентификатор кодека : XVID
Идентификатор кодека/Подсказка : XviD
Продолжительность : 1 ч. 47 м.
Битрейт : 664 Кбит/сек
Ширина : 640 пикселей
Высота : 480 пикселей
Соотношение сторон : 4:3
Частота кадров : 25,000 кадров/сек
Цветовое пространство : YUV
Субдискретизация насыщенности : 4:2:0
Битовая глубина : 8 бит
Тип развёртки : Прогрессивная
Метод сжатия : С потерями
Бит/(Пиксели*Кадры) : 0.086
Размер потока : 512 Мбайт (83%)
Библиотека кодирования : XviD 1.1.2 (UTC 2006-11-01)
Аудио
Идентификатор : 1
Формат : MPEG Audio
Версия формата : Version 1
Профиль формата : Layer 3
Режим : Joint stereo
Расширение режима : MS Stereo
Идентификатор кодека : 55
Идентификатор кодека/Подсказка : MP3
Продолжительность : 1 ч. 47 м.
Вид битрейта : Постоянный
Битрейт : 128 Кбит/сек
Каналы : 2 канала
Частота : 44,1 КГц
Метод сжатия : С потерями
Размер потока : 98,7 Мбайт (16%)
Выравнивание : Разделение по промежуткам
Продолжительность промежутка : 40 мс. (1,00 видеокадр)
Время предзагрузки промежутка : 500 мс.

Скриншоты




[teatrix.ru].t22888.torrent 
Торрент: Зарегистрирован [ 2016-03-21 00:37 ] · 009ACE5F3FBB16D243AE5A7493976C98DB7D5FF5

Скачать .torrent

Скачать

13 KB

Статус: проверено
Скачан: 2 раз
Размер: 618 MB
terms.php



Быстрый ответ

Имя:

      
Для отправки сообщений необходимо включить JavaScript
Показать сообщения:    

Текущее время: 10-Дек 21:36

Часовой пояс: UTC + 3


Вы можете начинать темы
Вы можете отвечать на сообщения
Вы не можете редактировать свои сообщения
Вы не можете удалять свои сообщения
Вы не можете голосовать в опросах
Вы не можете прикреплять файлы к сообщениям
Вы можете скачивать файлы