Как стать Трампом / Making of Trump, The (Джеффри Попласки / Jeffrey Poplaski) [2015, Док. фильм, SATRip]


Статистика раздачи [Обновить пиров]
Размер:  755 MB   |    Зарегистрирован:  8 месяцев 13 дней   |    Скачан:  1 раз

Полного источника не было: 4 месяца 6 дней

 
   
 
 
 

[Цитировать]

Как стать Трампом / Making of Trump, The
Дата/Год выпуска: 2015
Страна: США
Жанр: Док. фильм
Продолжительность: 01:25:15
Перевод: Субтитры
Русские субтитры: есть
Формат субтитров: hardsub (неотключаемые)
Оригинальная аудиодорожка: английский
Режиссер: Джеффри Попласки / Jeffrey Poplaski
Описание: Дональд Трамп никогда не оставался в тени. А после того, как включился в президентскую гонку, его имя не сходит со страниц газет и экранов ТВ
SATRip от : Твид
Доп. информация: Любезно предоставлено клубом Fenix
качество: SATRip
формат: AVI
Видео: XviD, 1100 kb/s, 640x480, 25 fps, 0.144 bits/pixel
Аудио: 0x0055(MP3) ID'd as MPEG-1 Layer 3, 128 kb/s (2/ch, stereo) CBR - Английский

MediaInfo

Общее
Полное имя : D:\Fillms-1\Kak stat` Trampom.SAT-rip.by.Твид.fenixclub.avi
Формат : AVI
Формат/Информация : Audio Video Interleave
Размер файла : 755 Мбайт
Продолжительность : 1 ч. 25 м.
Общий поток : 1238 Кбит/сек
Видео
Идентификатор : 0
Формат : MPEG-4 Visual
Профиль формата : Advanced Simple@L5
Параметр BVOP формата : 2
Параметр QPel формата : Нет
Параметр GMC формата : Без точки перехода
Параметр матрицы формата : Default (H.263)
Идентификатор кодека : XVID
Идентификатор кодека/Подсказка : XviD
Продолжительность : 1 ч. 25 м.
Битрейт : 1100 Кбит/сек
Ширина : 640 пикселей
Высота : 480 пикселей
Соотношение сторон : 4:3
Частота кадров : 25,000 кадров/сек
Цветовое пространство : YUV
Субдискретизация насыщенности : 4:2:0
Битовая глубина : 8 бит
Тип развёртки : Прогрессивная
Метод сжатия : С потерями
Бит/(Пиксели*Кадры) : 0.143
Размер потока : 671 Мбайт (89%)
Библиотека кодирования : XviD 1.1.2 (UTC 2006-11-01)
Аудио
Идентификатор : 1
Формат : MPEG Audio
Версия формата : Version 1
Профиль формата : Layer 3
Режим : Joint stereo
Расширение режима : MS Stereo
Идентификатор кодека : 55
Идентификатор кодека/Подсказка : MP3
Продолжительность : 1 ч. 25 м.
Вид битрейта : Постоянный
Битрейт : 128 Кбит/сек
Каналы : 2 канала
Частота : 44,1 КГц
Метод сжатия : С потерями
Размер потока : 78,0 Мбайт (10%)
Выравнивание : Разделение по промежуткам
Продолжительность промежутка : 40 мс. (1,00 видеокадр)
Время предзагрузки промежутка : 500 мс.

Скриншоты





[teatrix.ru].t22889.torrent 
Торрент: Зарегистрирован [ 2016-03-21 00:37 ] · D689B671FDF186CC757A4D715F8F53498DAD8639

Скачать .torrent

Скачать

15 KB

Статус: проверено
Скачан: 1 раз
Размер: 755 MB
terms.php



Быстрый ответ

Имя:

      
Для отправки сообщений необходимо включить JavaScript
Показать сообщения:    

Текущее время: 03-Дек 09:49

Часовой пояс: UTC + 3


Вы можете начинать темы
Вы можете отвечать на сообщения
Вы не можете редактировать свои сообщения
Вы не можете удалять свои сообщения
Вы не можете голосовать в опросах
Вы не можете прикреплять файлы к сообщениям
Вы можете скачивать файлы