Adieu au Langage / Goodbye to Language / Прощай Речь (Жан-Люк Годар / Jean-Luc Godard) [2014, Франция, Драма, DVD9 (Custom)] MVO + Sub Fre, Rus + Original Fre / WILD SIDE


Статистика раздачи [Обновить пиров]
Размер:  5.92 GB   |    Зарегистрирован:  8 месяцев 15 дней   |    Скачан:  1 раз

Полного источника не было: 2 месяца 3 дня

 
   
 
 
 

[Цитировать]

Прощай, речь / Adieu au langage / Goodbye to Language / WILD SIDE
Страна:Франция Студия:Canal+[fr], Centre National de la Cinematographie (CNC), Wild Bunch.Жанр:ДрамаГод выпуска:2014
Продолжительность:01:06:27Производство:WILD SIDE Перевод:Профессиональный (многоголосый закадровый)
Cубтитры:Французские, Русские
Премьера (мир):21.05.2014
Режиссер:Жан-Люк Годар / Jean-Luc GodardВ ролях:Элоиз Годе — Жозетт
Камель Абдели — Гедеон
Ришар Шевалье — Маркус
Зои Бруно — Ивич
Кристиан Грегори — Давидсон
Джессика Эрискон — Мэри Шелли
Рокси Мьевилль — Рокси
Описание:Он и она — два мира, утративших связь друг с другом. Их единственный проводник — собака. Без слов животное транслирует любовь в оба конца, и эта слабая связь неожиданно крепнет. Но хватит ли ее, чтобы разжечь былые чувства?
Доп. информация:Исходник найден в сети.Звук(MVO) и субтитры взяты из раздачи am@zon-http://teatrix.ru/viewtopic.php?t=6765.Изначально дорожка Russian AC3, 6 ch, 448 kbps была дутая.Переведена в AC3, 2 ch, 192 kbps.Меню неотредактировано, переключение звуковых дорожек с пульта.Огромное СпасибоВсем, без чьей помощи этот релиз не состоялся бы!Сценарий:Жан-Люк ГодарПродюсер:Брагим Шиуа, Венсан Мараваль, Ален СардОператор:Фабрис Араньо

Это интересно

Годар, Жан-Люк-https://ru.wikipedia.org/wiki/Годар,_Жан-Люк
Прощай, речь-https://ru.wikipedia.org/wiki/Прощай,_речь_3D

Знаете ли вы, что


Награды и номинации

Рецензия

Софт

PGCDemux (извлечение).
BeSweet, BeHappy, Sony Vegas 10 (звук).
Subtitle Workshop, SubtitleCreator (субтитры).
MuxMan (сборка). DvdReMakePro (финал).
--Adieu au langage

Бонусы:(Без перевода)

- Entretien de 40 minutes avec Jean-Luc Godard
- Souvenir d’Utopie, court-metrage d'Anne-Marie Mieville
- Liens internet
- Bande-annonce
--Меню:Французский, анимированное, озвученное.Сэмпл:https://www.sendspace.com/file/biifx8Тип релиза:DVD9 (Custom)
Контейнер:DVD-Video
Видео:PAL 16:9 (720x576) VBR, Auto Letterboxed, 6912 Кбит/сек, 25,000 кадров/секАудио 1:Французский:AC3, 2 ch, 48.0 KHz, 192 Кбит/сек / ОригиналАудио 2:Французский:DTS, 2 ch, 48.0 KHz, 755 Кбит/секАудио 3:Французский:AC3, 2 ch, 48.0 KHz, 192 Кбит/сек / КомментарииАудио 4:Русский:AC3, 2 ch, 48.0 KHz, 192 Кбит/сек / Профессиональный (многоголосый закадровый)
Формат субтитров:prerendered (DVD/IDX+SUB)

Dvd Info

Title: W(media)
Size: 5.92 Gb ( 6 203 654 KBytes ) - DVD-9
Enabled regions: 1, 2, 3, 4, 5, 6, 7, 8
VTS_01 :
Play Length: 00:00:29
Video: PAL 16:9 (720x576) VBR, Auto Letterboxed
Audio:
Francais (Dolby AC3, 2 ch)
VTS_02 :
Play Length:
Video: PAL 4:3 (720x576) VBR
Audio:
Francais (Dolby AC3, 2 ch)
VTS_03 :
Play Length: 00:44:24
Video: PAL 16:9 (720x576) VBR, Auto Letterboxed
Audio:
Francais (Dolby AC3, 2 ch)
VTS_04 :
Play Length: 00:06:08
Video: PAL 4:3 (720x576) VBR
Audio:
Francais (Dolby AC3, 2 ch)
VTS_05 :
Play Length: 00:01:30
Video: PAL 16:9 (720x576) VBR, Auto Letterboxed
Audio:
Francais (Dolby AC3, 2 ch)
VTS_06 :
Play Length: 01:06:27
Video: PAL 16:9 (720x576) VBR, Auto Letterboxed
Audio:
Francais (Dolby AC3, 2 ch)
Francais (DTS, 2 ch)
Francais (Dolby AC3, 2 ch)
Russian (Dolby AC3, 2 ch)
Subtitles:
Francais
Russian

Mediainfo

Общее
Полное имя : F:\Adieu au langage DVD-9_Custom\VIDEO_TS\VTS_06_1.VOB
Формат : MPEG-PS
Размер файла : 1024 Мбайт
Продолжительность : 17 м.
Режим общего битрейта : Переменный
Общий поток : 8410 Кбит/сек
Видео
Идентификатор : 224 (0xE0)
Формат : MPEG Video
Версия формата : Version 2
Профиль формата : Main@Main
Параметр BVOP формата : Да
Параметр матрицы формата : Выборочная
Параметр GOP формата : M=3, N=15
Структура изображения : Frame
Продолжительность : 17 м.
Вид битрейта : Переменный
Битрейт : 6912 Кбит/сек
Максимальный битрейт : 8200 Кбит/сек
Ширина : 720 пикселей
Высота : 576 пикселей
Соотношение сторон : 16:9
Частота кадров : 25,000 кадров/сек
Стандарт вещания : PAL
Цветовое пространство : YUV
Субдискретизация насыщенности : 4:2:0
Битовая глубина : 8 бит
Тип развёртки : Чересстрочная
Порядок развёртки : Верхнее поле первое
Метод сжатия : С потерями
Бит/(Пиксели*Кадры) : 0.667
Временной код первого кадра : 00:00:00:00
Оригинал временного кода : Group of pictures header
GOP, открыто/закрыто : Открыто
GOP, открыто/закрыто на первом кадре : Закрыто
Размер потока : 842 Мбайт (82%)
Аудио #1
Идентификатор : 189 (0xBD)-128 (0x80)
Формат : AC-3
Формат/Информация : Audio Coding 3
Расширение режима : CM (complete main)
Параметр Endianness формата : Big
Режим смешивания : DVD-Video
Продолжительность : 17 м.
Вид битрейта : Постоянный
Битрейт : 192 Кбит/сек
Каналы : 2 канала
Расположение каналов : Front: L R
Частота : 48,0 КГц
Частота кадров : 31,250 кадров/сек (1536 spf)
Метод сжатия : С потерями
Размер потока : 23,4 Мбайт (2%)
Аудио #2
Идентификатор : 189 (0xBD)-130 (0x82)
Формат : AC-3
Формат/Информация : Audio Coding 3
Расширение режима : VI (visually impaired)
Параметр Endianness формата : Big
Режим смешивания : DVD-Video
Продолжительность : 17 м.
Вид битрейта : Постоянный
Битрейт : 192 Кбит/сек
Каналы : 2 канала
Расположение каналов : Front: L R
Частота : 48,0 КГц
Частота кадров : 31,250 кадров/сек (1536 spf)
Метод сжатия : С потерями
Размер потока : 23,4 Мбайт (2%)
Аудио #3
Идентификатор : 189 (0xBD)-131 (0x83)
Формат : AC-3
Формат/Информация : Audio Coding 3
Расширение режима : CM (complete main)
Параметр Endianness формата : Big
Режим смешивания : DVD-Video
Продолжительность : 17 м.
Вид битрейта : Постоянный
Битрейт : 192 Кбит/сек
Каналы : 2 канала
Расположение каналов : Front: L R
Частота : 48,0 КГц
Частота кадров : 31,250 кадров/сек (1536 spf)
Метод сжатия : С потерями
Размер потока : 23,4 Мбайт (2%)
Аудио #4
Идентификатор : 189 (0xBD)-137 (0x89)
Формат : DTS
Формат/Информация : Digital Theater Systems
Режим : 16
Параметр Endianness формата : Big
Режим смешивания : DVD-Video
Продолжительность : 17 м.
Вид битрейта : Постоянный
Битрейт : 755 Кбит/сек
Каналы : 2 канала
Расположение каналов : Front: L R
Частота : 48,0 КГц
Частота кадров : 93,750 кадра/сек (512 spf)
Битовая глубина : 16 бит
Метод сжатия : С потерями
Размер потока : 91,8 Мбайт (9%)
Текст #1
Идентификатор : 189 (0xBD)-33 (0x21)
Формат : RLE
Формат/Информация : Run-length encoding
Режим смешивания : DVD-Video
Задержка видео : 2 с. 760 мс.
Текст #2
Идентификатор : 189 (0xBD)-32 (0x20)
Формат : RLE
Формат/Информация : Run-length encoding
Режим смешивания : DVD-Video

Скриншоты меню



]

Скриншоты фильма

Скриншоты доп. материалов


Полиграфия


[teatrix.ru].t22890.torrent 
Торрент: Зарегистрирован [ 2016-03-21 00:37 ] · C8E8FE814147D9CC95BC914DE150201DFC9B338B

Скачать .torrent

Скачать

32 KB

Статус: проверено
Скачан: 1 раз
Размер: 5.92 GB
terms.php



Быстрый ответ

Имя:

      
Для отправки сообщений необходимо включить JavaScript
Показать сообщения:    

Текущее время: 05-Дек 01:24

Часовой пояс: UTC + 3


Вы можете начинать темы
Вы можете отвечать на сообщения
Вы не можете редактировать свои сообщения
Вы не можете удалять свои сообщения
Вы не можете голосовать в опросах
Вы не можете прикреплять файлы к сообщениям
Вы можете скачивать файлы