Германия, год 90: Одиночества / Германия 90 Девять Ноль / Allemagne 90 neuf zéro / Germany Year 90 Nine Zero / Jean-Luc Godard) [1991, Франция, Драма, DVD5 (Custom)] VO + Sub Rus + Original Fre / WILD SIDE


Статистика раздачи [Обновить пиров]
Размер:  3.93 GB   |    Зарегистрирован:  8 месяцев 12 дней   |    Скачан:  0 раз

Полного источника не было: Никогда

 
   
 
 
 

[Цитировать]

Германия 90 девять ноль / Allemagne 90 neuf zero Страна:Франция Студия:Antenne-2 (A2), Gaumont, Peripheria, Production Brainstorm.Жанр:ДрамаГод выпуска:1991
Продолжительность:00:59:46Производство:WILD SIDE Перевод:Одноголосый (закадровый)
Cубтитры:Русские BronzeManПремьера (мир):21.03.1992
Режиссер:Жан-Люк Годар / Jean-Luc GodardВ ролях:Эдди Константин, Ханнс Цишлер, Клаудия Михельсен, Nathalie Kadem, Андре С. Лабарт, Robert Wittmers, Kim Kashkashian, Anton Mossine, Хайнц Пжбыльски, Керстин Боос
Описание:Воссоединение двух частей Германии в 1990 конечно было одним из самых важных политических событий в Европе начиная со второй мировой войны. Кино Годара это не кино в традиционном смысле, ни документальный фильм. Это - скорее философский подход к тому событию - Годар показывает короткие фрагменты вымышленных и документальных эпизодов, мнений и фактов.
КиноПоискДоп. информация:Исходник найден в сети.Для Германия, год 90: Одиночества / Allemagne annee 90 neuf zero русская дорожкаМеню неотредактировано, переключение звуковых дорожек с пульта.Огромное СпасибоВсем, без чьей помощи этот релиз не состоялся бы!Сценарий:Жан-Люк ГодарПродюсер:Nicole RuelleОператор:Степан Бенда, Андреас Эрбен, Кристоф Поллок

Это интересно

Годар, Жан-Люк-https://ru.wikipedia.org/wiki/Годар,_Жан-Люк
Germany Year 90 Nine Zero-https://en.wikipedia.org/wiki/Germany_Year_90_Nine_Zero

Награды и номинации Allemagne 90 neuf zero


Софт

PGCDemux (извлечение).
BeSweet, Sony Vegas 10 (звук).
Subtitle Workshop, SubtitleCreator (субтитры).
MuxMan (сборка). DvdReMakePro (финал).
--Allemagne annee 90 neuf zero

Бонусы:(Без перевода)

- Entretien de 40 minutes avec Jean-Luc Godard
- Souvenir d’Utopie, court-metrage d'Anne-Marie Mieville
- Liens internet
- Bande-annonce
--Меню:Французский, анимированное, озвученное.Сэмпл:https://www.sendspace.com/file/hjal4jТип релиза:DVD5 (Custom)
Контейнер:DVD-Video
Видео:PAL 16:9 (720x576) VBR, Auto Letterboxed, 4041 Кбит/сек, 25,000 кадров/секАудио 1:Французский:AC3, 2 ch, 48.0 KHz, 192 Кбит/сек / ОригиналАудио 2:Русский:AC3, 2 ch, 48.0 KHz, 192 Кбит/сек / Одноголосый (закадровый)Формат субтитров:prerendered (DVD/IDX+SUB)

Dvd Info

Title: W(media)
Size: 3.93 Gb ( 4 124 978 KBytes ) - DVD-5
Enabled regions: 1, 2, 3, 4, 5, 6, 7, 8
VTS_01 :
Play Length: 00:00:29
Video: PAL 16:9 (720x576) VBR, Auto Letterboxed
Audio:
Francais (Dolby AC3, 2 ch)
VTS_02 :
Play Length: 00:59:46
Video: PAL 4:3 (720x576) VBR
Audio:
Francais (Dolby AC3, 2 ch)
Russian (Dolby AC3, 2 ch)
Subtitles:
Russian
VTS_03 :
Play Length: 00:44:24
Video: PAL 16:9 (720x576) VBR, Auto Letterboxed
Audio:
Francais (Dolby AC3, 2 ch)
VTS_04 :
Play Length: 00:06:08
Video: PAL 4:3 (720x576) VBR
Audio:
Francais (Dolby AC3, 2 ch)
VTS_05 :
Play Length: 00:01:30
Video: PAL 16:9 (720x576) VBR, Auto Letterboxed
Audio:
Francais (Dolby AC3, 2 ch)
VTS_06 :
Play Length: 00:00:06
Video: PAL 16:9 (720x576) VBR, Auto Letterboxed
Audio:
Francais (Dolby AC3, 2 ch)
Francais (DTS, 2 ch)
Francais (Dolby AC3, 2 ch)
Russian (Dolby AC3, 2 ch)
Subtitles:
Francais
Russian

Mediainfo

Общее
Полное имя : F:\Allemagne 90 neuf zero DVD-5_Custom\VIDEO_TS\VTS_02_1.VOB
Формат : MPEG-PS
Размер файла : 1024 Мбайт
Продолжительность : 31 м.
Режим общего битрейта : Переменный
Общий поток : 4515 Кбит/сек
Видео
Идентификатор : 224 (0xE0)
Формат : MPEG Video
Версия формата : Version 2
Профиль формата : Main@Main
Параметр BVOP формата : Да
Параметр матрицы формата : Выборочная
Параметр GOP формата : Variable
Структура изображения : Frame
Продолжительность : 31 м.
Вид битрейта : Переменный
Битрейт : 4041 Кбит/сек
Максимальный битрейт : 7500 Кбит/сек
Ширина : 720 пикселей
Высота : 576 пикселей
Соотношение сторон : 4:3
Частота кадров : 25,000 кадров/сек
Стандарт вещания : PAL
Цветовое пространство : YUV
Субдискретизация насыщенности : 4:2:0
Битовая глубина : 8 бит
Тип развёртки : Чересстрочная
Порядок развёртки : Верхнее поле первое
Метод сжатия : С потерями
Бит/(Пиксели*Кадры) : 0.390
Временной код первого кадра : 00:00:00:00
Оригинал временного кода : Group of pictures header
GOP, открыто/закрыто : Открыто
GOP, открыто/закрыто на первом кадре : Закрыто
Размер потока : 917 Мбайт (90%)
Аудио #1
Идентификатор : 189 (0xBD)-128 (0x80)
Формат : AC-3
Формат/Информация : Audio Coding 3
Расширение режима : CM (complete main)
Параметр Endianness формата : Big
Режим смешивания : DVD-Video
Продолжительность : 31 м.
Вид битрейта : Постоянный
Битрейт : 192 Кбит/сек
Каналы : 2 канала
Расположение каналов : Front: L R
Частота : 48,0 КГц
Частота кадров : 31,250 кадров/сек (1536 spf)
Метод сжатия : С потерями
Размер потока : 43,5 Мбайт (4%)
Аудио #2
Идентификатор : 189 (0xBD)-129 (0x81)
Формат : AC-3
Формат/Информация : Audio Coding 3
Расширение режима : CM (complete main)
Параметр Endianness формата : Big
Режим смешивания : DVD-Video
Продолжительность : 31 м.
Вид битрейта : Постоянный
Битрейт : 192 Кбит/сек
Каналы : 2 канала
Расположение каналов : Front: L R
Частота : 48,0 КГц
Частота кадров : 31,250 кадров/сек (1536 spf)
Метод сжатия : С потерями
Размер потока : 43,5 Мбайт (4%)
Текст
Идентификатор : 189 (0xBD)-32 (0x20)
Формат : RLE
Формат/Информация : Run-length encoding
Режим смешивания : DVD-Video

Скриншоты меню


Скриншоты фильма

Скриншоты доп. материалов



Полиграфия
[teatrix.ru].t22893.torrent 
Торрент: Зарегистрирован [ 2016-03-21 00:36 ] · 39F3AD207B836B6668D3D05E513DC29A7A7990A5

Скачать .torrent

Скачать

22 KB

Статус: проверено
Скачан: 0 раз
Размер: 3.93 GB
terms.php



Быстрый ответ

Имя:

      
Для отправки сообщений необходимо включить JavaScript
Показать сообщения:    

Текущее время: 02-Дек 21:06

Часовой пояс: UTC + 3


Вы можете начинать темы
Вы можете отвечать на сообщения
Вы не можете редактировать свои сообщения
Вы не можете удалять свои сообщения
Вы не можете голосовать в опросах
Вы не можете прикреплять файлы к сообщениям
Вы можете скачивать файлы