Никола Тесла. Провидец современной эры / Nikola Tesla - Visionary of Modern Times (Михаэль Краузе / Michael Krause) [2012, документально-игровой, биографический, SATRip]


Статистика раздачи [Обновить пиров]
Размер:  782 MB   |    Зарегистрирован:  8 месяцев 15 дней   |    Скачан:  0 раз

Полного источника не было: Никогда

 
   
 
 
 

[Цитировать]

Никола Тесла. Провидец современной эры / Nikola Tesla - Visionary of Modern Times
Дата/Год выпуска: 2012
Страна: Германия
Жанр: документально-игровой, биографический
Продолжительность: 00:51:09
Перевод: Профессиональный (двухголосый закадровый)
Телеканал: 365 дней
Русские субтитры: нет
Режиссер: Михаэль Краузе / Michael Krause
Описание: Никола Тесла - гениальный физик, инженер, сочинитель в раздела электротехники и радиотехники. Он вполне серьезно утверждал, что может расколоть Землю, нужен только подходящий вибратор и точный расчет времени...
Сэмпл: http://multi-up.com/1088342
качество: SATRip
формат: AVI
Видео: 720x400 (16:9), 25.000 fps, XviD 73 ~1999 kbps avg, 0.278 bit/pixel
Аудио: MP3, 128.00 kbps, 48 kHz, 2 ch

MediaInfo

General
Complete name : E:\Download\Nikola Tesla Visionary of Modern Times 2012 SATRip.avi
Format : AVI
Format/Info : Audio Video Interleave
File size : 782 MiB
Duration : 51mn 9s
Overall bit rate : 2 137 Kbps
Writing application : VirtualDubMod 1.5.10.3 | www.virtualdub-fr.org || (build 2550/release)
Writing library : VirtualDubMod build 2550/release
Video
ID : 0
Format : MPEG-4 Visual
Format profile : Advanced Simple@L5
Format settings, BVOP : 1
Format settings, QPel : No
Format settings, GMC : No warppoints
Format settings, Matrix : Custom
Codec ID : XVID
Codec ID/Hint : XviD
Duration : 51mn 9s
Bit rate : 1 999 Kbps
Width : 720 pixels
Height : 400 pixels
Display aspect ratio : 16:9
Frame rate : 25.000 fps
Color space : YUV
Chroma subsampling : 4:2:0
Bit depth : 8 bits
Scan type : Progressive
Compression mode : Lossy
Bits/(Pixel*Frame) : 0.278
Stream size : 732 MiB (94%)
Writing library : XviD 73
Audio
ID : 1
Format : MPEG Audio
Format version : Version 1
Format profile : Layer 3
Codec ID : 55
Codec ID/Hint : MP3
Duration : 51mn 9s
Bit rate mode : Constant
Bit rate : 128 Kbps
Channel(s) : 2 channels
Sampling rate : 48.0 KHz
Compression mode : Lossy
Stream size : 46.8 MiB (6%)
Alignment : Aligned on interleaves
Interleave, duration : 40 ms (1.00 video frame)
Interleave, preload duratio : 504 ms
Writing library : LAME3.99r
Encoding settings : -m s -V 4 -q 2 -lowpass 17 -b 128

Скриншоты

[teatrix.ru].t22894.torrent 
Торрент: Зарегистрирован [ 2016-03-21 00:36 ] · EA6E0B9022FC67302ECFD15384F8E4DFED75AC79

Скачать .torrent

Скачать

16 KB

Статус: проверено
Скачан: 0 раз
Размер: 782 MB
terms.php



Быстрый ответ

Имя:

      
Для отправки сообщений необходимо включить JavaScript
Показать сообщения:    

Текущее время: 05-Дек 23:35

Часовой пояс: UTC + 3


Вы можете начинать темы
Вы можете отвечать на сообщения
Вы не можете редактировать свои сообщения
Вы не можете удалять свои сообщения
Вы не можете голосовать в опросах
Вы не можете прикреплять файлы к сообщениям
Вы можете скачивать файлы