Круглосуточные тусовщики / 24 Hour Party People (Майкл Уинтерботтом / Michael Winterbottom) [2002, Великобритания, драма, комедия, биография, музыка, WEB-DL 720p] DVO + Sub Rus, Eng + Original Eng


 

[Цитировать]

Круглосуточные тусовщики / 24 Hour Party People
Страна: Великобритания
Студия: Revolution Films, FilmFour и др.
Жанр: драма, комедия, биография, музыка
Год выпуска: 2002
Продолжительность: 01:56:59
Перевод: Профессиональный (двухголосый закадровый)
Cубтитры: русские, английские
Оригинальная аудиодорожка: английский
Режиссер: Майкл Уинтерботтом / Michael Winterbottom
В ролях: Стив Куган, Ширли Хендерсон, Джон Симм, Кит Аллен, Пэдди Консидайн, Шон Харрис, Дэнни Каннингэм, Энди Серкис, Крис Когилл, Ленни Джеймс, Ралф Литтл
Описание: 1976 год. Манчестер: Выпускник Кэмбриджа Тони Уилсон — главный представитель культовой группы "The Sex Pistols" на TV. Вдохновленный этим поворотным моментом в истории музыки, он и его друзья основывают новый лэйбл звукозаписи — "Factory Records", где создаются первые альбомы "Joy Division" (ставший позже "New Order") и "The Happy Mondays". Все они стали оригинальными художниками своего времени.
Фильм — коктейль музыки, секса, наркотиков, сюрреалистических кокаиновых снов, больших-чем-жизнь характеров, хроника рождения одного из наиболее известных клубов в мире Hacienda — Мекки для clubbers, столь же известного как "Студия 54". Изощренное изображение музыкальной и танцевальной культуры Манчестера с конца 70-х к началу 90-х в этой комедии документирует вибрацию, которая сделала Безумный Честер культовым местом в мире…


Sample
Тип релиза: WEB-DL 720p
Контейнер: MKV
Видео: MPEG4 AVC Video, H264, 16:9, 1280x694, 23.976 fps, 3832 kbps
Аудио: Russian (AC3, 6 ch, 448 kbps, 16 bits, 48.0 KHz) - DVO
Аудио 2: English (AC3, 6 ch, 448 kbps, 16 bits, 48.0 KHz) - оригинал
Формат субтитров: softsub (SRT)

MediaInfo

General
Unique ID : 238345348902128065553599371705948996901 (0xB34FA4FB0ADB653E9ED077E923268525)
Complete name : E:\24 Hour Party People 2002 WEB-DL 720p.mkv
Format : Matroska
Format version : Version 4 / Version 2
File size : 3.94 GiB
Duration : 1h 56mn
Overall bit rate : 4 824 Kbps
Encoded date : UTC 2016-02-09 06:56:02
Writing application : mkvmerge v6.1.0 ('Old Devil') built on Mar 2 2013 14:32:37
Writing library : libebml v1.3.0 + libmatroska v1.4.0
Video
ID : 1
Format : AVC
Format/Info : Advanced Video Codec
Format profile : High@L3.1
Format settings, CABAC : No
Format settings, ReFrames : 2 frames
Codec ID : V_MPEG4/ISO/AVC
Duration : 1h 56mn
Bit rate : 3 832 Kbps
Width : 1 280 pixels
Height : 694 pixels
Display aspect ratio : 1.85:1
Frame rate mode : Constant
Frame rate : 23.976 fps
Color space : YUV
Chroma subsampling : 4:2:0
Bit depth : 8 bits
Scan type : Progressive
Bits/(Pixel*Frame) : 0.180
Stream size : 3.13 GiB (79%)
Language : English
Default : Yes
Forced : No
Color primaries : BT.709
Transfer characteristics : BT.709
Matrix coefficients : BT.709
Audio #1
ID : 2
Format : AC-3
Format/Info : Audio Coding 3
Mode extension : CM (complete main)
Format settings, Endianness : Big
Codec ID : A_AC3
Duration : 1h 56mn
Bit rate mode : Constant
Bit rate : 448 Kbps
Channel count : 6 channels
Channel positions : Front: L C R, Side: L R, LFE
Sampling rate : 48.0 KHz
Bit depth : 16 bits
Compression mode : Lossy
Stream size : 375 MiB (9%)
Language : Russian
Default : Yes
Forced : No
Audio #2
ID : 3
Format : AC-3
Format/Info : Audio Coding 3
Mode extension : CM (complete main)
Format settings, Endianness : Big
Codec ID : A_AC3
Duration : 1h 56mn
Bit rate mode : Constant
Bit rate : 448 Kbps
Channel count : 6 channels
Channel positions : Front: L C R, Side: L R, LFE
Sampling rate : 48.0 KHz
Bit depth : 16 bits
Compression mode : Lossy
Stream size : 375 MiB (9%)
Language : English
Default : No
Forced : No
Text #1
ID : 4
Format : UTF-8
Codec ID : S_TEXT/UTF8
Codec ID/Info : UTF-8 Plain Text
Language : Russian
Default : No
Forced : No
Text #2
ID : 5
Format : UTF-8
Codec ID : S_TEXT/UTF8
Codec ID/Info : UTF-8 Plain Text
Language : English
Default : No
Forced : No
Menu
00:00:00.000 : en:Chapter 1
00:09:14.000 : en:Chapter 2
00:19:13.000 : en:Chapter 3
00:28:51.000 : en:Chapter 4
00:36:07.000 : en:Chapter 5
00:44:04.000 : en:Chapter 6
00:52:43.000 : en:Chapter 7
01:02:34.000 : en:Chapter 8
01:11:52.000 : en:Chapter 9
01:21:00.000 : en:Chapter 10
01:34:06.000 : en:Chapter 11
01:44:22.000 : en:Chapter 12

Скриншоты




Показать сообщения:    

Текущее время: 08-Дек 19:11

Часовой пояс: UTC + 3


Вы не можете начинать темы
Вы не можете отвечать на сообщения
Вы не можете редактировать свои сообщения
Вы не можете удалять свои сообщения
Вы не можете голосовать в опросах
Вы не можете прикреплять файлы к сообщениям
Вы не можете скачивать файлы