[TR24][SM][OF] Aaron Copland - Third Symphony - Aaron Copland, London Symphony Orchestra - 1959 (Classical)


Статистика раздачи [Обновить пиров]
Размер:  1.44 GB   |    Зарегистрирован:  8 месяцев 21 день   |    Скачан:  1 раз

Полного источника не было: 21 день

 
   
 
 
 

[Цитировать]

·
·

Aaron Copland
(1900―1990)
Жанр: Symphony
Носитель: Official Digital Download
Год издания диска: Ⓟ 1959 Everest Records
Год переиздания диска: © 2013 Countdown Media GmbH
Номер по каталогу: SDBR-3018
Продолжительность: 40:20
Наличие сканов в содержимом раздачи: artwork
Контейнер: FLAC (*.flac)
Разрядность: 24/192
Количество каналов: 2.0
Формат: tracks
Источник: HDtracks
Pелизер: WEB (thanks to the original customer)
Aaron Copland
London Symphony Orchestra

Треклист

Symphony No. 3 (1944-1946)
01 I. Molto moderato 09:31
02 II. Allegro molto 08:14
03 III. Andantino quasi allegretto 09:55
04 IV. Molto deliberato (Fanfare) – Allegro risoluto 12:40

Dynamic Range Meter

foobar2000 1.3.8 / Dynamic Range Meter 1.1.1
log date: 2015-08-25 03:58:36
--------------------------------------------------------------------------------
Analyzed: London Symphony Orchestra, Aaron Copland / Copland: Symphony No. 3
--------------------------------------------------------------------------------
DR Peak RMS Duration Track
--------------------------------------------------------------------------------
DR13 -0.30 dB -18.69 dB 9:31 01-Symphony No. 3: I. Molto moderato
DR12 -0.57 dB -17.98 dB 8:14 02-Symphony No. 3: II. Allegro molto
DR14 -4.75 dB -24.84 dB 9:55 03-Symphony No. 3: III. Andantino quasi allegretto
DR12 -0.30 dB -16.73 dB 12:40 04-Symphony No. 3: IV. Molto deliberato (Fanfare) - Allegro risoluto
--------------------------------------------------------------------------------
Number of tracks: 4
Official DR value: DR13
Samplerate: 192000 Hz
Channels: 2
Bits per sample: 24
Bitrate: 5158 kbps
Codec: FLAC
================================================================================
[teatrix.ru].t22896.torrent 
Торрент: Зарегистрирован [ 2016-03-21 00:36 ] · 752214486FA7BD00A0600A14FAAED92B4D470857

Скачать .torrent

Скачать

15 KB

Статус: проверено
Скачан: 1 раз
Размер: 1.44 GB
terms.php



Быстрый ответ

Имя:

      
Для отправки сообщений необходимо включить JavaScript
Показать сообщения:    

Текущее время: 11-Дек 03:20

Часовой пояс: UTC + 3


Вы можете начинать темы
Вы можете отвечать на сообщения
Вы не можете редактировать свои сообщения
Вы не можете удалять свои сообщения
Вы не можете голосовать в опросах
Вы не можете прикреплять файлы к сообщениям
Вы можете скачивать файлы