Стив Джобс: Человек в машине / Steve Jobs: The Man in the Machine (Алекс Гибни / Alex Gibney) [2015, документальный, BDRip]


Статистика раздачи [Обновить пиров]
Размер:  2.17 GB   |    Зарегистрирован:  8 месяцев 19 дней   |    Скачан:  0 раз

Полного источника не было: Никогда

 
   
 
 
 

[Цитировать]

Стив Джобс: Человек в машине / Steve Jobs: The Man in the Machine
Дата/Год выпуска: 2015
Страна: США
Жанр: документальный
Продолжительность: 02:08:40
Перевод: Субтитры
Русские субтитры: есть
Формат субтитров: softsub (SRT) внешние
Режиссер: Алекс Гибни / Alex Gibney
Описание: Фильм рассказывает о частной жизни Стива Джобса.
Сэмпл: http://multi-up.com/1088388
качество: BDRip [Steve.Jobs.The.Man.in.the.Machine.2015.COMPLETE.BLURAY-UNRELiABLE/HDCLUB]
формат: AVI
Видео: 688x384 (16:9), 23.976 fps, XviD 73 ~1967 kbps avg, 0.311 bit/pixel
Аудио: AC3, 448.00 kbps, 48 kHz, 6 ch

MediaInfo

General
Complete name : E:\Документальное\Steve Jobs. The Man in the Machine. 2015 BDRip\Steve Jobs. The Man in the Machine. 2015 BDRip.avi
Format : AVI
Format/Info : Audio Video Interleave
Format profile : OpenDML
File size : 2.17 GiB
Duration : 2h 8mn
Overall bit rate : 2 411 Kbps
Writing application : VirtualDubMod 1.5.10.3 | www.virtualdub-fr.org || (build 2550/release)
Writing library : VirtualDubMod build 2550/release
Video
ID : 0
Format : MPEG-4 Visual
Format profile : Advanced Simple@L5
Format settings, BVOP : 1
Format settings, QPel : No
Format settings, GMC : No warppoints
Format settings, Matrix : Custom
Codec ID : XVID
Codec ID/Hint : XviD
Duration : 2h 8mn
Bit rate : 1 967 Kbps
Width : 688 pixels
Height : 384 pixels
Display aspect ratio : 16:9
Frame rate : 23.976 (23976/1000) fps
Color space : YUV
Chroma subsampling : 4:2:0
Bit depth : 8 bits
Scan type : Progressive
Compression mode : Lossy
Bits/(Pixel*Frame) : 0.311
Stream size : 1.77 GiB (82%)
Writing library : XviD 73
Audio
ID : 1
Format : AC-3
Format/Info : Audio Coding 3
Mode extension : CM (complete main)
Format settings, Endianness : Big
Codec ID : 2000
Duration : 2h 4mn
Bit rate mode : Constant
Bit rate : 448 Kbps
Channel(s) : 6 channels
Channel positions : Front: L C R, Side: L R, LFE
Sampling rate : 48.0 KHz
Frame rate : 31.250 fps (1536 spf)
Compression mode : Lossy
Stream size : 398 MiB (18%)
Alignment : Split accross interleaves
Interleave, duration : 43 ms (1.04 video frame)
Interleave, preload duratio : 500 ms

Скриншоты

[teatrix.ru].t22897.torrent 
Торрент: Зарегистрирован [ 2016-03-21 00:36 ] · E2496ED7C507F4D68267BB54C78E95B4BF949A43

Скачать .torrent

Скачать

11 KB

Статус: проверено
Скачан: 0 раз
Размер: 2.17 GB
terms.php



Быстрый ответ

Имя:

      
Для отправки сообщений необходимо включить JavaScript
Показать сообщения:    

Текущее время: 09-Дек 04:55

Часовой пояс: UTC + 3


Вы можете начинать темы
Вы можете отвечать на сообщения
Вы не можете редактировать свои сообщения
Вы не можете удалять свои сообщения
Вы не можете голосовать в опросах
Вы не можете прикреплять файлы к сообщениям
Вы можете скачивать файлы