(Classical sacred) Arvo Part - Cantus in Memory of Benjamin Britten, Summa, Fratres [2CD's] (Choir of King's College, Cambridge / Stephen Cleobury, Estonian Philarmonic Chamber Choir / Tonu Kaljuste) - 2004, FLAC (tracks+.cue) lossless


Статистика раздачи [Обновить пиров]
Размер:  456 MB   |    Зарегистрирован:  8 месяцев 14 дней   |    Скачан:  0 раз

Полного источника не было: Никогда

 
   
 
 
 

[Цитировать]

Arvo Part - Cantus in Memory of Benjamin Britten, Summa, The Beatitudes, Fratres

Жанр: Classical sacred
Страна-производитель диска: Printed in the EU
Год издания диска: 2004
Издатель (лейбл): EMI Records / Virgin Classics
Номер по каталогу: 7243 5 62434 2 2
Дата записи: 2004
Аудиокодек: FLAC
Тип рипа: tracks+.cue
Битрейт аудио: lossless
Продолжительность: 57'11 + 61'02
Источник: релизер
сайт-источник/ник/другое: ruskaval
Наличие сканов в содержимом раздачи: да
Треклист:

скрытый текст

Disk 1:

скрытый текст

01 - Cantus in Memory of Benjamin Britten (1997) 6:19
02 - Summa (1978) 5:31
03 - The Beatitudes (1990, rev. 1991) 6:06
04 - Fratres (version VI) (1991) 10:14
05 - Festina Lente 6:13
06 - Magnificat (1989) 6:30
07 - Silentium (from Tabula Rasa) 16:22
Disk 2:

скрытый текст

01 - Statuit ei Dominus 5:06
02 - Missa syllabica - Kyrie 2:38
03 - Missa syllabica - Gloria 2:21
04 - Missa syllabica - Credo 6:43
05 - Missa syllabica - Sanctus 1:26
06 - Missa syllabica - Agnus Dei 2:22
07 - Missa syllabica - Ite, missa est 0:37
08 - Beatus Petronius 5:05
09 - Magnificat-Antiphonen (1) 1:46
10 - Magnificat-Antiphonen (2) 2:37
11 - Magnificat-Antiphonen (3) 1:10
12 - Magnificat-Antiphonen (4) 1:54
13 - Magnificat-Antiphonen (5) 1:42
14 - Magnificat-Antiphonen (6) 2:07
15 - Magnificat-Antiphonen (7) 2:13
16 - De profundis 5:35
17 - Memento 8:50
18 - Cantate Domino 2:42
19 - Solfeggio 4:05
Estonian Philarmonic Chamber Choir / Tonu Kaljuste
Исполнители:

скрытый текст

Arvo Part
CD1
Cantus in Memory of Benjamin Britten (1997)
Summa (1978)
The Beatitudes (1990, rev. 1991)
Fratres (version VI) (1991)
Festina Lente
Magnificat (1989)
Silentium (from Tabula Rasa)
Guy Johnson treble - Tasmin Little, Richard Studt violin - Martin Roscoe piano
Choir of King's College, Cambridge / Stephen Cleobury
Bournemouth Sinfonietta / Richard Studt - London Philarmonic / Franz Welser-Most
CD2
Statuit ei Dominus
Missa syllabica
Beatus Petronius
Magnificat-Antiphonen (1-7)
De profundis
Memento
Cantate Domino
Solfeggio
Estonian Philarmonic Chamber Choir / Tonu Kaljuste
Лог создания рипа
CD1

скрытый текст

Exact Audio Copy V1.0 beta 2 from 29. April 2011
EAC extraction logfile from 24. September 2011, 16:06
Arvo Part / Choral & Instrumental Works, Disk 1
Used drive : HL-DT-STDVDRAM GSA-H10N Adapter: 6 ID: 0
Read mode : Secure
Utilize accurate stream : Yes
Defeat audio cache : Yes
Make use of C2 pointers : No
Read offset correction : 667
Overread into Lead-In and Lead-Out : No
Fill up missing offset samples with silence : Yes
Delete leading and trailing silent blocks : No
Null samples used in CRC calculations : Yes
Used interface : Native Win32 interface for Win NT & 2000
Gap handling : Appended to previous track
Used output format : User Defined Encoder
Selected bitrate : 768 kBit/s
Quality : High
Add ID3 tag : No
Command line compressor : C:\Program Files (x86)\Exact Audio Copy\FLAC\FLAC.EXE
Additional command line options : -8 -V -T "ARTIST=%artist%" -T "TITLE=%title%" -T "ALBUM=%albumtitle%" -T "DATE=%year%" -T "TRACKNUMBER=%tracknr%" -T "TOTALTRACKS=%numtracks%" -T "GENRE=%genre%" -T "ALBUMARTIST=%albumartist%" -T "ALBUM ARTIST=%albumartist%
TOC of the extracted CD
Track | Start | Length | Start sector | End sector
––––––––––––––––––––––––––––-
1 | 0:00.00 | 6:19.30 | 0 | 28454
2 | 6:19.30 | 5:30.50 | 28455 | 53254
3 | 11:50.05 | 6:06.20 | 53255 | 80724
4 | 17:56.25 | 10:14.08 | 80725 | 126782
5 | 28:10.33 | 6:13.05 | 126783 | 154762
6 | 34:23.38 | 6:29.57 | 154763 | 183994
7 | 40:53.20 | 16:22.35 | 183995 | 257679
Track 1
Filename L:\eacrip\01 - Cantus in Memory of Benjamin Britten.wav
Pre-gap length 0:00:02.00
Peak level 28.3 %
Extraction speed 2.9 X
Track quality 100.0 %
Test CRC 6A7D309B
Copy CRC 6A7D309B
Cannot be verified as accurate (confidence 3) [70D68DDA], AccurateRip returned [33D5B610] (AR v2)
Copy OK
Track 2
Filename L:\eacrip\02 - Summa.wav
Pre-gap length 0:00:09.02
Peak level 31.8 %
Extraction speed 3.0 X
Track quality 99.9 %
Test CRC 38218D15
Copy CRC 38218D15
Cannot be verified as accurate (confidence 3) [9FC53450], AccurateRip returned [21D3C99D] (AR v2)
Copy OK
Track 3
Filename L:\eacrip\03 - The Beatitudes.wav
Pre-gap length 0:00:07.37
Peak level 46.6 %
Extraction speed 3.8 X
Track quality 100.0 %
Test CRC 5B0B1D1B
Copy CRC 5B0B1D1B
Cannot be verified as accurate (confidence 3) [B922E3EE], AccurateRip returned [F0C45D4E] (AR v2)
Copy OK
Track 4
Filename L:\eacrip\04 - Fratres (version VI).wav
Pre-gap length 0:00:07.40
Peak level 42.0 %
Extraction speed 4.2 X
Track quality 100.0 %
Test CRC C30AE735
Copy CRC C30AE735
Cannot be verified as accurate (confidence 3) [33CD3153], AccurateRip returned [659C70D1] (AR v2)
Copy OK
Track 5
Filename L:\eacrip\05 - Festina Lente.wav
Pre-gap length 0:00:07.45
Peak level 58.3 %
Extraction speed 4.6 X
Track quality 100.0 %
Test CRC 0D845E24
Copy CRC 0D845E24
Cannot be verified as accurate (confidence 3) [CE0963FD], AccurateRip returned [DA6875FA] (AR v2)
Copy OK
Track 6
Filename L:\eacrip\06 - Magnificat.wav
Pre-gap length 0:00:06.52
Peak level 99.9 %
Extraction speed 4.6 X
Track quality 99.9 %
Test CRC 7BD829C5
Copy CRC 7BD829C5
Cannot be verified as accurate (confidence 3) [8A5BC127], AccurateRip returned [EF9BC451] (AR v2)
Copy OK
Track 7
Filename L:\eacrip\07 - Silentium (from Tabula Rasa).wav
Pre-gap length 0:00:07.04
Peak level 19.2 %
Extraction speed 5.9 X
Track quality 100.0 %
Test CRC 0FF339FB
Copy CRC 0FF339FB
Cannot be verified as accurate (confidence 3) [B228E4B1], AccurateRip returned [E3E67D44] (AR v2)
Copy OK
No tracks could be verified as accurate
You may have a different pressing from the one(s) in the database
No errors occurred
End of status report
==== Log checksum C5CA090A08BF12F0AF2CFE47E38CB4D7AC1D95306C12482F742DE32C43FEFE67 ====
CD2

скрытый текст

Exact Audio Copy V1.0 beta 2 from 29. April 2011
EAC extraction logfile from 24. September 2011, 16:59
Arvo Part / Choral & Instrumental Works, Disk 2
Used drive : HL-DT-STDVDRAM GSA-H10N Adapter: 6 ID: 0
Read mode : Secure
Utilize accurate stream : Yes
Defeat audio cache : Yes
Make use of C2 pointers : No
Read offset correction : 667
Overread into Lead-In and Lead-Out : No
Fill up missing offset samples with silence : Yes
Delete leading and trailing silent blocks : No
Null samples used in CRC calculations : Yes
Used interface : Native Win32 interface for Win NT & 2000
Gap handling : Appended to previous track
Used output format : User Defined Encoder
Selected bitrate : 768 kBit/s
Quality : High
Add ID3 tag : No
Command line compressor : C:\Program Files (x86)\Exact Audio Copy\FLAC\FLAC.EXE
Additional command line options : -8 -V -T "ARTIST=%artist%" -T "TITLE=%title%" -T "ALBUM=%albumtitle%" -T "DATE=%year%" -T "TRACKNUMBER=%tracknr%" -T "TOTALTRACKS=%numtracks%" -T "GENRE=%genre%" -T "ALBUMARTIST=%albumartist%" -T "ALBUM ARTIST=%albumartist%
TOC of the extracted CD
Track | Start | Length | Start sector | End sector
––––––––––––––––––––––––––––-
1 | 0:00.00 | 5:05.70 | 0 | 22944
2 | 5:05.70 | 2:37.65 | 22945 | 34784
3 | 7:43.60 | 2:21.37 | 34785 | 45396
4 | 10:05.22 | 6:42.48 | 45397 | 75594
5 | 16:47.70 | 1:26.05 | 75595 | 82049
6 | 18:14.00 | 2:22.27 | 82050 | 92726
7 | 20:36.27 | 0:37.23 | 92727 | 95524
8 | 21:13.50 | 5:05.00 | 95525 | 118399
9 | 26:18.50 | 1:45.67 | 118400 | 126341
10 | 28:04.42 | 2:37.25 | 126342 | 138141
11 | 30:41.67 | 1:09.63 | 138142 | 143379
12 | 31:51.55 | 1:54.22 | 143380 | 151951
13 | 33:46.02 | 1:41.60 | 151952 | 159586
14 | 35:27.62 | 2:07.08 | 159587 | 169119
15 | 37:34.70 | 2:13.20 | 169120 | 179114
16 | 39:48.15 | 5:35.22 | 179115 | 204261
17 | 45:23.37 | 8:50.20 | 204262 | 244031
18 | 54:13.57 | 2:42.23 | 244032 | 256204
19 | 56:56.05 | 4:04.55 | 256205 | 274559
Track 1
Filename L:\eacrip\01 - Statuit ei Dominus.wav
Pre-gap length 0:00:02.00
Peak level 89.5 %
Extraction speed 4.6 X
Track quality 100.0 %
Test CRC E2C72823
Copy CRC E2C72823
Cannot be verified as accurate (confidence 3) [6F24CAD3], AccurateRip returned [9EB519EB] (AR v2)
Copy OK
Track 2
Filename L:\eacrip\02 - Missa syllabica - Kyrie.wav
Peak level 5.9 %
Extraction speed 4.7 X
Track quality 100.0 %
Test CRC A9BA19F9
Copy CRC A9BA19F9
Cannot be verified as accurate (confidence 3) [B3FF91EE], AccurateRip returned [4016A9F2] (AR v2)
Copy OK
Track 3
Filename L:\eacrip\03 - Missa syllabica - Gloria.wav
Peak level 27.3 %
Extraction speed 4.8 X
Track quality 100.0 %
Test CRC E586DFA0
Copy CRC E586DFA0
Cannot be verified as accurate (confidence 3) [D7474820], AccurateRip returned [BDEA2A98] (AR v2)
Copy OK
Track 4
Filename L:\eacrip\04 - Missa syllabica - Credo.wav
Peak level 34.8 %
Extraction speed 6.0 X
Track quality 100.0 %
Test CRC 5140198C
Copy CRC 5140198C
Cannot be verified as accurate (confidence 3) [8B7892BC], AccurateRip returned [637DBD1A] (AR v2)
Copy OK
Track 5
Filename L:\eacrip\05 - Missa syllabica - Sanctus.wav
Peak level 91.2 %
Extraction speed 4.9 X
Track quality 100.0 %
Test CRC E5D22735
Copy CRC E5D22735
Cannot be verified as accurate (confidence 3) [2ABA6A3A], AccurateRip returned [32072643] (AR v2)
Copy OK
Track 6
Filename L:\eacrip\06 - Missa syllabica - Agnus Dei.wav
Peak level 8.4 %
Extraction speed 5.5 X
Track quality 100.0 %
Test CRC 6DC28FF8
Copy CRC 6DC28FF8
Cannot be verified as accurate (confidence 3) [2608306B], AccurateRip returned [3BD9066C] (AR v2)
Copy OK
Track 7
Filename L:\eacrip\07 - Missa syllabica - Ite, missa est.wav
Peak level 52.4 %
Extraction speed 3.6 X
Track quality 100.0 %
Test CRC 7FAE3A6F
Copy CRC 7FAE3A6F
Cannot be verified as accurate (confidence 3) [74A66A0D], AccurateRip returned [11A51B44] (AR v2)
Copy OK
Track 8
Filename L:\eacrip\08 - Beatus Petronius.wav
Peak level 17.9 %
Extraction speed 6.7 X
Track quality 100.0 %
Test CRC D9A5EF03
Copy CRC D9A5EF03
Cannot be verified as accurate (confidence 3) [AF8ED18D], AccurateRip returned [8A87DDBA] (AR v2)
Copy OK
Track 9
Filename L:\eacrip\09 - Magnificat-Antiphonen (1).wav
Peak level 14.8 %
Extraction speed 4.1 X
Track quality 99.8 %
Test CRC 5C54A25B
Copy CRC 5C54A25B
Cannot be verified as accurate (confidence 3) [E229BE77], AccurateRip returned [0E35FEF7] (AR v2)
Copy OK
Track 10
Filename L:\eacrip\10 - Magnificat-Antiphonen (2).wav
Peak level 17.5 %
Extraction speed 5.1 X
Track quality 99.9 %
Test CRC FE993CFE
Copy CRC FE993CFE
Cannot be verified as accurate (confidence 3) [D7CF4D3C], AccurateRip returned [193FC223] (AR v2)
Copy OK
Track 11
Filename L:\eacrip\11 - Magnificat-Antiphonen (3).wav
Peak level 65.1 %
Extraction speed 5.6 X
Track quality 100.0 %
Test CRC 102673D0
Copy CRC 102673D0
Cannot be verified as accurate (confidence 3) [8990B21F], AccurateRip returned [3EFFE089] (AR v2)
Copy OK
Track 12
Filename L:\eacrip\12 - Magnificat-Antiphonen (4).wav
Peak level 100.0 %
Extraction speed 6.5 X
Track quality 100.0 %
Test CRC 702E1397
Copy CRC 702E1397
Cannot be verified as accurate (confidence 3) [1573205F], AccurateRip returned [1F1B98F1] (AR v2)
Copy OK
Track 13
Filename L:\eacrip\13 - Magnificat-Antiphonen (5).wav
Peak level 23.5 %
Extraction speed 6.0 X
Track quality 100.0 %
Test CRC 3F5A10B8
Copy CRC 3F5A10B8
Cannot be verified as accurate (confidence 3) [460FF74E], AccurateRip returned [D72A96AE] (AR v2)
Copy OK
Track 14
Filename L:\eacrip\14 - Magnificat-Antiphonen (6).wav
Peak level 41.7 %
Extraction speed 4.9 X
Track quality 99.9 %
Test CRC 0E2B21EB
Copy CRC 0E2B21EB
Cannot be verified as accurate (confidence 3) [016615C9], AccurateRip returned [34F47126] (AR v2)
Copy OK
Track 15
Filename L:\eacrip\15 - Magnificat-Antiphonen (7).wav
Peak level 98.1 %
Extraction speed 7.1 X
Track quality 100.0 %
Test CRC 853FC9B3
Copy CRC 853FC9B3
Cannot be verified as accurate (confidence 3) [C6314EE0], AccurateRip returned [DFFEA606] (AR v2)
Copy OK
Track 16
Filename L:\eacrip\16 - De profundis.wav
Peak level 86.2 %
Extraction speed 7.3 X
Track quality 99.9 %
Test CRC E9BFA4D6
Copy CRC E9BFA4D6
Cannot be verified as accurate (confidence 3) [9DD67AC6], AccurateRip returned [A6D1AA10] (AR v2)
Copy OK
Track 17
Filename L:\eacrip\17 - Memento.wav
Peak level 45.8 %
Extraction speed 9.4 X
Track quality 100.0 %
Test CRC 9002A2FA
Copy CRC 9002A2FA
Cannot be verified as accurate (confidence 3) [B2EBC7CD], AccurateRip returned [01BDDF72] (AR v2)
Copy OK
Track 18
Filename L:\eacrip\18 - Cantate Domino.wav
Peak level 34.3 %
Extraction speed 6.3 X
Track quality 99.9 %
Test CRC 3E359A82
Copy CRC 3E359A82
Cannot be verified as accurate (confidence 3) [96572E60], AccurateRip returned [4CBFC51E] (AR v2)
Copy OK
Track 19
Filename L:\eacrip\19 - Solfeggio.wav
Peak level 63.9 %
Extraction speed 7.7 X
Track quality 99.9 %
Test CRC B124F5BB
Copy CRC B124F5BB
Cannot be verified as accurate (confidence 3) [E9AB0EC5], AccurateRip returned [68F1CC5E] (AR v2)
Copy OK
No tracks could be verified as accurate
You may have a different pressing from the one(s) in the database
No errors occurred
End of status report
==== Log checksum 0FC9CA1B15BBDC987CD577601D22877F1E21A7AFE20FC8035CF023650F54B6ED ====
Содержание индексной карты (.CUE)
CD1

скрытый текст

REM GENRE Classical
REM DATE 2004
REM DISCID 570D6B07
REM COMMENT "ExactAudioCopy v1.0b2"
PERFORMER "Arvo Part"
TITLE "Choral & Instrumental Works, Disk 1"
FILE "01 - Cantus in Memory of Benjamin Britten.wav" WAVE
TRACK 01 AUDIO
TITLE "Cantus in Memory of Benjamin Britten"
PERFORMER "Arvo Part"
INDEX 01 00:00:00
TRACK 02 AUDIO
TITLE "Summa"
PERFORMER "Arvo Part"
INDEX 00 06:10:28
FILE "02 - Summa.wav" WAVE
INDEX 01 00:00:00
TRACK 03 AUDIO
TITLE "The Beatitudes"
PERFORMER "Arvo Part"
INDEX 00 05:23:13
FILE "03 - The Beatitudes.wav" WAVE
INDEX 01 00:00:00
TRACK 04 AUDIO
TITLE "Fratres (version VI)"
PERFORMER "Arvo Part"
INDEX 00 05:58:55
FILE "04 - Fratres (version VI).wav" WAVE
INDEX 01 00:00:00
TRACK 05 AUDIO
TITLE "Festina Lente"
PERFORMER "Arvo Part"
INDEX 00 10:06:38
FILE "05 - Festina Lente.wav" WAVE
INDEX 01 00:00:00
TRACK 06 AUDIO
TITLE "Magnificat"
PERFORMER "Arvo Part"
INDEX 00 06:06:28
FILE "06 - Magnificat.wav" WAVE
INDEX 01 00:00:00
TRACK 07 AUDIO
TITLE "Silentium (from Tabula Rasa)"
PERFORMER "Arvo Part"
INDEX 00 06:22:53
FILE "07 - Silentium (from Tabula Rasa).wav" WAVE
INDEX 01 00:00:00
CD2

скрытый текст

REM GENRE Classical
REM DATE 2004
REM DISCID 070E4C13
REM COMMENT "ExactAudioCopy v1.0b2"
PERFORMER "Arvo Part"
TITLE "Choral & Instrumental Works, Disk 2"
FILE "01 - Statuit ei Dominus.wav" WAVE
TRACK 01 AUDIO
TITLE "Statuit ei Dominus"
PERFORMER "Arvo Part"
INDEX 01 00:00:00
FILE "02 - Missa syllabica - Kyrie.wav" WAVE
TRACK 02 AUDIO
TITLE "Missa syllabica - Kyrie"
PERFORMER "Arvo Part"
INDEX 01 00:00:00
FILE "03 - Missa syllabica - Gloria.wav" WAVE
TRACK 03 AUDIO
TITLE "Missa syllabica - Gloria"
PERFORMER "Arvo Part"
INDEX 01 00:00:00
FILE "04 - Missa syllabica - Credo.wav" WAVE
TRACK 04 AUDIO
TITLE "Missa syllabica - Credo"
PERFORMER "Arvo Part"
INDEX 01 00:00:00
FILE "05 - Missa syllabica - Sanctus.wav" WAVE
TRACK 05 AUDIO
TITLE "Missa syllabica - Sanctus"
PERFORMER "Arvo Part"
INDEX 01 00:00:00
FILE "06 - Missa syllabica - Agnus Dei.wav" WAVE
TRACK 06 AUDIO
TITLE "Missa syllabica - Agnus Dei"
PERFORMER "Arvo Part"
INDEX 01 00:00:00
FILE "07 - Missa syllabica - Ite, missa est.wav" WAVE
TRACK 07 AUDIO
TITLE "Missa syllabica - Ite, missa est"
PERFORMER "Arvo Part"
INDEX 01 00:00:00
FILE "08 - Beatus Petronius.wav" WAVE
TRACK 08 AUDIO
TITLE "Beatus Petronius"
PERFORMER "Arvo Part"
INDEX 01 00:00:00
FILE "09 - Magnificat-Antiphonen (1).wav" WAVE
TRACK 09 AUDIO
TITLE "Magnificat-Antiphonen (1)"
PERFORMER "Arvo Part"
INDEX 01 00:00:00
FILE "10 - Magnificat-Antiphonen (2).wav" WAVE
TRACK 10 AUDIO
TITLE "Magnificat-Antiphonen (2)"
PERFORMER "Arvo Part"
INDEX 01 00:00:00
FILE "11 - Magnificat-Antiphonen (3).wav" WAVE
TRACK 11 AUDIO
TITLE "Magnificat-Antiphonen (3)"
PERFORMER "Arvo Part"
INDEX 01 00:00:00
FILE "12 - Magnificat-Antiphonen (4).wav" WAVE
TRACK 12 AUDIO
TITLE "Magnificat-Antiphonen (4)"
PERFORMER "Arvo Part"
INDEX 01 00:00:00
FILE "13 - Magnificat-Antiphonen (5).wav" WAVE
TRACK 13 AUDIO
TITLE "Magnificat-Antiphonen (5)"
PERFORMER "Arvo Part"
INDEX 01 00:00:00
FILE "14 - Magnificat-Antiphonen (6).wav" WAVE
TRACK 14 AUDIO
TITLE "Magnificat-Antiphonen (6)"
PERFORMER "Arvo Part"
INDEX 01 00:00:00
FILE "15 - Magnificat-Antiphonen (7).wav" WAVE
TRACK 15 AUDIO
TITLE "Magnificat-Antiphonen (7)"
PERFORMER "Arvo Part"
INDEX 01 00:00:00
FILE "16 - De profundis.wav" WAVE
TRACK 16 AUDIO
TITLE "De profundis"
PERFORMER "Arvo Part"
INDEX 01 00:00:00
FILE "17 - Memento.wav" WAVE
TRACK 17 AUDIO
TITLE "Memento"
PERFORMER "Arvo Part"
INDEX 01 00:00:00
FILE "18 - Cantate Domino.wav" WAVE
TRACK 18 AUDIO
TITLE "Cantate Domino"
PERFORMER "Arvo Part"
INDEX 01 00:00:00
FILE "19 - Solfeggio.wav" WAVE
TRACK 19 AUDIO
TITLE "Solfeggio"
PERFORMER "Arvo Part"
INDEX 01 00:00:00
[teatrix.ru].t22898.torrent 
Торрент: Зарегистрирован [ 2016-03-21 00:36 ] · C2A06AB1691C230326BFD881773B82F83F537BFB

Скачать .torrent

Скачать

21 KB

Статус: проверено
Скачан: 0 раз
Размер: 456 MB
terms.php



Быстрый ответ

Имя:

      
Для отправки сообщений необходимо включить JavaScript
Показать сообщения:    

Текущее время: 04-Дек 13:18

Часовой пояс: UTC + 3


Вы можете начинать темы
Вы можете отвечать на сообщения
Вы не можете редактировать свои сообщения
Вы не можете удалять свои сообщения
Вы не можете голосовать в опросах
Вы не можете прикреплять файлы к сообщениям
Вы можете скачивать файлы