(Classical) Joseph-Nicolas-Pancrace Royer - Complete Music for Harpsichord - Yago Mahugo - 2013, FLAC (image+.cue) lossless


 

[Цитировать]

Joseph-Nicolas-Pancrace Royer - Complete Music for Harpsichord - Yago Mahugo
Жанр: Classical
Год издания диска: 2013
Издатель (лейбл): Brilliant Classics
Номер по каталогу: 94479
Дата записи: 2011
Аудиокодек: FLAC
Тип рипа: image+.cue
Битрейт аудио: lossless
Продолжительность: 61:57
Источник: собственный рип
Наличие сканов в содержимом раздачи: да
Треклист:
Joseph-Nicolas-Pancrace Royer (c.1705-1755)
[1] La Majestueuse: Courante
[2] La Zaïde: Rondeau (Tendrement)
[3] Les Matelots (Modérément)
[4] Premier et Deuxième Tambourins
[5] L'Incertaine (Marqué)
[6] L'Aimable (Gracieux)
[7] La Bagatelle
[8] Suite de la Bagatelle
[9] La Remouleuse: Rondeau (Modérément)
[10] Les Tendres Sentiments: Rondeau
[11] Le Vertigo: Rondeau (Modérément)
[12] Allemande
[13] La Sensible: Rondeau
[14] Le Marche des Scythes (Fièrement)
[15] La Chasse de Zaïde
Исполнители:
Yago Mahugo harpsichord

Лог создания рипа

Exact Audio Copy V1.0 beta 3 from 29. August 2011
EAC extraction logfile from 2. June 2015, 0:38
Yago Mahugo / Royer - Complete Music for Harpsichord
Used drive : HL-DT-STDVDRAM GU70N Adapter: 0 ID: 0
Read mode : Secure
Utilize accurate stream : Yes
Defeat audio cache : Yes
Make use of C2 pointers : No
Read offset correction : 48
Overread into Lead-In and Lead-Out : No
Fill up missing offset samples with silence : Yes
Delete leading and trailing silent blocks : No
Null samples used in CRC calculations : Yes
Used interface : Native Win32 interface for Win NT & 2000
Used output format : User Defined Encoder
Selected bitrate : 128 kBit/s
Quality : High
Add ID3 tag : No
Command line compressor : C:\Program Files (x86)\Exact Audio Copy\Flac\flac.exe
Additional command line options : -V -8 -T "Date=%year%" -T "Genre=%genre%" %source%
TOC of the extracted CD
Track | Start | Length | Start sector | End sector
---------------------------------------------------------
1 | 0:00.00 | 3:54.48 | 0 | 17597
2 | 3:54.48 | 5:39.50 | 17598 | 43072
3 | 9:34.23 | 2:21.69 | 43073 | 53716
4 | 11:56.17 | 1:35.16 | 53717 | 60857
5 | 13:31.33 | 3:21.17 | 60858 | 75949
6 | 16:52.50 | 5:49.58 | 75950 | 102182
7 | 22:42.33 | 1:27.48 | 102183 | 108755
8 | 24:10.06 | 2:10.53 | 108756 | 118558
9 | 26:20.59 | 2:25.00 | 118559 | 129433
10 | 28:45.59 | 7:46.04 | 129434 | 164387
11 | 36:31.63 | 5:19.36 | 164388 | 188348
12 | 41:51.24 | 5:26.15 | 188349 | 212813
13 | 47:17.39 | 4:47.46 | 212814 | 234384
14 | 52:05.10 | 6:48.40 | 234385 | 265024
15 | 58:53.50 | 3:03.50 | 265025 | 278799
Range status and errors
Selected range
Filename C:\temp\Royer - Complete Music for Harpsichord\Royer - Complete Music for Harpsichord.wav
Peak level 90.1 %
Extraction speed 2.1 X
Range quality 100.0 %
Test CRC 1AC13F54
Copy CRC 1AC13F54
Copy OK
No errors occurred
AccurateRip summary
Track 1 accurately ripped (confidence 3) [866D803A] (AR v2)
Track 2 accurately ripped (confidence 3) [AA5825A4] (AR v2)
Track 3 accurately ripped (confidence 3) [F99F94D0] (AR v2)
Track 4 accurately ripped (confidence 3) [4BCD7FC1] (AR v2)
Track 5 accurately ripped (confidence 3) [7CCDC239] (AR v2)
Track 6 accurately ripped (confidence 3) [45FAF0CB] (AR v2)
Track 7 accurately ripped (confidence 3) [BF54AE42] (AR v2)
Track 8 accurately ripped (confidence 3) [CF7B210C] (AR v2)
Track 9 accurately ripped (confidence 3) [074C50E5] (AR v2)
Track 10 accurately ripped (confidence 3) [B9B5BE49] (AR v2)
Track 11 accurately ripped (confidence 3) [0EDD3AC4] (AR v2)
Track 12 accurately ripped (confidence 3) [8362648A] (AR v2)
Track 13 accurately ripped (confidence 3) [9FC631E7] (AR v2)
Track 14 accurately ripped (confidence 3) [9C0CEBE6] (AR v2)
Track 15 accurately ripped (confidence 3) [FF684E2A] (AR v2)
All tracks accurately ripped
End of status report
==== Log checksum 9A05B4686409A438998F2D6173DD926D1367D54D21DFE8A536E785B5EDE19EE7 ====



Показать сообщения:    

Текущее время: 10-Дек 13:52

Часовой пояс: UTC + 3


Вы не можете начинать темы
Вы не можете отвечать на сообщения
Вы не можете редактировать свои сообщения
Вы не можете удалять свои сообщения
Вы не можете голосовать в опросах
Вы не можете прикреплять файлы к сообщениям
Вы не можете скачивать файлы