Вуд и Сток: Секс, Орегано и Рок-н-Ролл / Wood & Stock: Sexo, Orégano e Rock'n'Roll (Отто Гуэрра / Otto Guerra) [2006, Бразилия, комедия, музыкальный, для взрослых, DVDRip] VO (Max Nabokov) + Original Por


 

[Цитировать]

Вуд и Сток: Секс, Орегано и Рок-н-Ролл / Wood & Stock: Sexo, Orégano e Rock'n'Roll
Страна: Бразилия
Жанр: комедия, музыкальный, для взрослых
Год выпуска: 2006
Продолжительность: 1:20:44
Перевод: Одноголосый закадровый (Max Nabokov)
Cубтитры: нет
Оригинальная аудиодорожка: португальский
Режиссер: Отто Гуэрра / Otto Guerra
В ролях: Мишель Франц, Geórgia Reck, Рита Ли, Хулио Андраде, Felipe Mônaco, Жозе Виктор Кастиел, Janaína Kremer Motta, Хайнц Лимаверде, Lobão, Леонардо Мачадо
Описание: Хиппи Вуд уже не молод, у него пивной живот. Жена увлекается оккультизмом. Подросток сын негодует от того, что его отец бездельник, наркоман и пьяница. Зато у Вуда есть лучший друг – старый хиппи, Сток. Такой же сластолюбец, лентяй и неудачник.
Как-то в пьяном угаре, Вуд на дне своего стакана видит уже покойного, легенду бразильского рока, Раульзито (Рауль Сиксас). Тот вещает ему, что жизнь еще не окончена и не стоит поддаваться давлению социума, следует возродить свою рок-группу, для того чтобы испытать счастья на музыкальном фестивале и выиграть миллион. Разумеется, друзья ни на секунду не сомневаются, что такое им по силам. Слава и успех уже не за горами. Их ждет гастрольный тур. Запись и продажи тысячи копий альбомов. Затем, роскошная смерть от передозировки, как и подобает истинным рокерам.
Но, что-то пошло не так…
Доп. информация: Фильм снят по мотивам оригинальных комиксов, Арнальдо Анджели Филу. Содержит ненормативную лексику.
Сэмпл: http://multi-up.com/1088422
Качество видео: DVDRip
Формат видео: AVI
Видео: 704x400 (1.76:1), 25 fps, XviD MPEG-4 ~2301 kbps avg, 0.33 bit/pixel
Аудио: 48 kHz, AC3 Dolby Digital, 2/0 (L,R) ch, ~192.00 kbps avg

MediaInfo

General
Complete name : D:\MOVIE\Wood e Stock - Sexo Oregano e RocknRoll.2006.DVDRip.(Max Nabokobv).avi
Format : AVI
Format/Info : Audio Video Interleave
File size : 1.41 GiB
Duration : 1h 20mn
Overall bit rate : 2 504 Kbps
Writing application : VirtualDubMod 1.5.10.2 (build 2540/release)
Writing library : VirtualDubMod build 2540/release
Video
ID : 0
Format : MPEG-4 Visual
Format profile : Advanced Simple@L5
Format settings, BVOP : 2
Format settings, QPel : No
Format settings, GMC : No warppoints
Format settings, Matrix : Custom
Codec ID : XVID
Codec ID/Hint : XviD
Duration : 1h 20mn
Bit rate : 2 302 Kbps
Width : 704 pixels
Height : 400 pixels
Display aspect ratio : 16:9
Frame rate : 25.000 fps
Color space : YUV
Chroma subsampling : 4:2:0
Bit depth : 8 bits
Scan type : Progressive
Compression mode : Lossy
Bits/(Pixel*Frame) : 0.327
Stream size : 1.30 GiB (92%)
Writing library : XviD 73
Audio
ID : 1
Format : AC-3
Format/Info : Audio Coding 3
Mode extension : CM (complete main)
Format settings, Endianness : Big
Codec ID : 2000
Duration : 1h 20mn
Bit rate mode : Constant
Bit rate : 192 Kbps
Channel(s) : 2 channels
Channel positions : Front: L R
Sampling rate : 48.0 KHz
Frame rate : 31.250 fps (1536 spf)
Compression mode : Lossy
Stream size : 111 MiB (8%)
Alignment : Split accross interleaves
Interleave, duration : 40 ms (1.00 video frame)
Interleave, preload duration : 500 ms

Скриншот c названием фильма

Скриншоты






Показать сообщения:    

Текущее время: 10-Дек 08:05

Часовой пояс: UTC + 3


Вы не можете начинать темы
Вы не можете отвечать на сообщения
Вы не можете редактировать свои сообщения
Вы не можете удалять свои сообщения
Вы не можете голосовать в опросах
Вы не можете прикреплять файлы к сообщениям
Вы не можете скачивать файлы