Весёлая жизнь (Николай Стуликов) [2014 г., Театральная сюита, WEB-DLRip] Народный студенческий театр "Старый Дом" (Екатеринбург)


 

[Цитировать]

Весёлая жизнь Название театра: Народный студенческий театр "Старый Дом" (Екатеринбург).
Год выпуска: 2014.
Жанр: Театральная сюита из 6-ти сюжетов.
Продолжительность: 01:58:21.
Режиссер: заслуженный работник культуры России Николай Стуликов.
Действующие лица и исполнители:
Весёлая жизнь (1922)
Сценическая версия - Андрей Ким, Николай Стуликов.
Действие происходит в 1913 г.
Генерал Танана - Андрей Ким,
Васька - Алексей Менделев,
Мамзель Зюзиль - Валерия Койнова,
Лезгин - Александр Лекер,
Лицо от театра - Александр Шарапов.
Метафизика (1922)
Конторщик Винивитькин - Леонид Заболовский,
Надюша-переписчица - Вероника Потапова,
Комиссар - Алексей Ворожцов,
«Марсельеза» - Анна Попкова.
Исповедь (1923)
Сценическая версия - Наталья Францева, Николай Стуликов.
Фёкла - Ирина Иванова,
Поп - Алексей Ворожцов.
Протокол (1924)
Милиционер - Вероника Потапова,
Потерпевшая - Ольга Герасимова,
Человек с мешком - Андрей Койнов,
Тётка с корзинкой - Ульяна Павлова,
Свидетели - Анна Шарапова, Марина Цой.
Рассказ про одну корыстную молочницу (1934)
Сценическая версия - Алла Кочнева, Николай Стуликов.
Молочница - Алёна Нечаева,
Врач - Дарья Худалеева,
Монтёр - Алексей Менделев.
Фотокарточка (1945)
Он - Григорий Ким,
Та, которая... - Александра Луткова,
Фотограф - Радмир Габдрахманов,
Сержант милиции - Михаил Васильев,
Дамочка - Ульяна Павлова,
Ловкач - Владимир Потеряхин.
О спектакле:
Рассказы, из которых составлен спектакль, принадлежат перу Михаила Зощенко (1894– 1958)
Парадокс, быть может, заключается в том, что вряд ли в сегодняшнем зрительном зале найдется много людей, которые бы вообще не слышали этого имени. С другой стороны, с той же степенью вероятности можно предположить, что вряд ли найдется много людей, которые на самом деле были бы знакомы с творчеством этого писателя в большом объеме, со всем разнообразием жанров его произведений, глубиной и широтой его постижения жизненных явлений.
И мы еще только-только прикоснулись к творчеству этого уникального Художника ХХ века.
Но и эти маленькие рассказы полны глубокого смысла, они соответствуют библейскому изречению: «Извлеки драгоценное из ничтожного…»
Итак, «Весёлая жизнь»!..
Может быть даже скорее «веселоватая»? Наш спектакль состоит из нескольких таких «веселоватых» Историй.
Вы увидите Сюжеты:
про странноватые исповеди,
про крепковатые браки,
про дурноватые фотографирования,
про бесноватые мечтания,
про нелеповатые протоколирования,
про цирковатые любовные прогулки –
одним словом – ВЕСЁЛАЯ ЖИЗНЬ!

Дополнительная информация:
Страна: Россия .
Награды и номинации:
• На Областном фестивале студенческих театров "Театральные встречи-2011" спектакль завоевал:
ДИПЛОМ (награждается Леонид Заболовский за роль Конторщика Винивитькина в спектакле «Весёлая жизнь» в номинации «ЛУЧШАЯ МУЖСКАЯ РОЛЬ»),
ДИПЛОМ (награждается Студенческий театр «Старый Дом»: «За осуществление связи времён на сцене и в жизни» - спектакль «Весёлая жизнь»),
• На фестивале «II Фестиваль студенческих театров» 2003 спектакль завоевал:
ДИПЛОМ (награждается Леонид Заболовский за исполнение роли Винивитькина в спектакле «Весёлая жизнь»)
• На фестивале «XVIII Межвузовский студенческий фестиваль ВЕСНА УПИ-2000» сюжет «Рассказ про одну корыстную молочницу» в составе спектакля «Проба пера» завоевал:
ДИПЛОМ в номинации «За яркое исполнение эпизодической роли» – Дмитрий Гусельников за роль Монтёра.
Автор: Михаил Зощенко.
Cценическая композиция, постановка, сценография, музыкальное оформление: заслуженный работник культуры России Николай Стуликов.
Музыка: Георгий Свиридов, Матвей Блантер, Рейнгольд Глиэр, Руже де Лиль.
Художественный руководитель театра: заслуженный работник культуры России Николай Стуликов.
Спектакль поставлен в декабре 2001 года.
Спектакль записан 15 марта 2014 года.

О спектакле.
Релиз
Рип sharky.

Качество видео:...WEB-DLRip
Формат:.................AVI
Видео:..704x400 (1.76:1), 25 fps, XviD build 50 ~1552 kbps avg, 0.22 bit/pixel
Аудио:..48 kHz, AC3 Dolby Digital, 2/0 (L,R) ch, ~192 kbps

Отчет MI

Общее
Полное имя : Vesyolaya.zhizn'_NST.Staryj.dom.Ekaterinburg.2014.XviD.WEB-DLRip.fenixclub.avi
Format : AVI
Format/Info : Audio Video Interleave
File size : 1.45 GiB
Duration : 1h 58mn
Overall bit rate : 1 754 Kbps
Writing application : VirtualDubMod 1.5.10.3 | www.virtualdub-fr.org || (build 2550/release)
Writing library : VirtualDubMod build 2550/release
Video
ID : 0
Format : MPEG-4 Visual
Format profile : Advanced Simple@L5
Format settings, BVOP : 1
Format settings, QPel : No
Format settings, GMC : No warppoints
Format settings, Matrix : Default (H.263)
Codec ID : XVID
Codec ID/Hint : XviD
Duration : 1h 58mn
Bit rate : 1 553 Kbps
Width : 704 pixels
Height : 400 pixels
Display aspect ratio : 16:9
Frame rate : 25.000 fps
Color space : YUV
Chroma subsampling : 4:2:0
Bit depth : 8 bits
Scan type : Progressive
Compression mode : Lossy
Bits/(Pixel*Frame) : 0.221
Stream size : 1.28 GiB (89%)
Writing library : XviD 1.2.1 (UTC 2008-12-04)
Audio
ID : 1
Format : AC-3
Format/Info : Audio Coding 3
Mode extension : CM (complete main)
Format settings, Endianness : Big
Codec ID : 2000
Duration : 1h 58mn
Bit rate mode : Constant
Bit rate : 192 Kbps
Channel(s) : 2 channels
Channel positions : Front: L R
Sampling rate : 48.0 KHz
Compression mode : Lossy
Stream size : 163 MiB (11%)
Alignment : Split accross interleaves
Interleave, duration : 40 ms (1.00 video frame)
Interleave, preload duratio : 500 ms.

Скриншот с названием постановки

Скриншоты


Альтернативный хост





Показать сообщения:    

Текущее время: 03-Дек 18:42

Часовой пояс: UTC + 3


Вы не можете начинать темы
Вы не можете отвечать на сообщения
Вы не можете редактировать свои сообщения
Вы не можете удалять свои сообщения
Вы не можете голосовать в опросах
Вы не можете прикреплять файлы к сообщениям
Вы не можете скачивать файлы