Женитьба (Николай Стуликов) [2014 г., комедия, WEB-DLRip] Народный студенческий театр "Старый Дом" (Екатеринбург)


 

[Цитировать]

Женитьба Название театра: Народный студенческий театр "Старый Дом" (Екатеринбург).
Год выпуска: 2014.
Жанр: комедия.
Продолжительность: 02:31:29.
Режиссер: заслуженный работник культуры России Николай Стуликов.
Действующие лица и исполнители:
Агафья Тихоновна Купердягина, купеческая дочь, невеста - Ксения Корнева,
Арина Пантелеймоновна, тётка - Ольга Зворыгина,
Фёкла Ивановна, сваха - Александра Луткова,
Иван Кузьмич Подколесин, служащий, надворный советник - Леонид Заболовский,
Илья Фомич Кочкарёв, друг его - Александр Лекер,
Иван Павлович Яичница, экзекутор - Алексей Ворожцов,
Никанор Иванович Анучкин, отставной пехотный офицер - Андрей Ким,
Балтазар Балтазарович Жевакин, моряк - Шамиль Иманкулов,
Акинф Степанович Пантелеев, титулярный советник - Андрей Койнов,
Алексей Дмитриевич Стариков, купец - Алексей Менделев,
Дуняшка, девочка в доме - Валерия Койнова,
Степан, слуга Подколесина - Михаил Васильев,
Извозчик - Николай Стуликов.
О спектакле:
Николай Гоголь. Самое загадочное событие русской литературы. Его понимание (весьма осложненное, к тому же вбитыми в нас школьными штампами) - процесс скорее личный, интимный. К Гоголю надо прийти индивидуально.
Постановкой сначала «Женитьбы», а затем «Повести о том, как поссорился Иван Иванович с Иваном Никифоровичем» театр делится со зрителем своим ощущением: мы кое-что поняли…
Понять Гоголя. Ну, хоть отчасти. Гоголя, актуального без всякого пошлого «осовременивания». Гоголя, щемящего, тоскующего по недостижимой гармонии жизни, и при этом - иногда, безумно смешного. А ведь драматург Гоголь оставил миру по сути всего две пьесы. И при этом оказался одним из величайших драматургов цивилизации. Загадка? Весь Гоголь – загадка. Как загадка - его странная пьеса «Женитьба», с её невероятными героями, с невероятными перипетиями, невероятными поступками персонажей.
Те, кто давно не перечитывал эту невероятную историю, будут захвачены её вихреобразным развитием; те же, кто помнит сюжет, удивятся: трудно представить себе такого Кочкарева, такого Подколесина, совершенно неожиданны сваха Фекла, невеста Агафья Тихоновна…
«Совершенно невероятное событие» в прочтении театра «Старый дом».

Дополнительная информация:
Страна: Россия .
Награды и номинации:
• На фестивале «Фестиваль студенческих театров» 2007 спектакль завоевал следующие награды:
- ДИПЛОМ в номинации «Лучшая мужская роль» – Леонид Заболовский за роль Подколесина,
- ДИПЛОМ в номинации «Лучшая эпизодическая роль» – Евгения Хоменко за роль Дуняшки,
- ДИПЛОМ за исполнение роли «Ивана Павловича Яичницы» – Алексей Ворожцов,
- ДИПЛОМ награждается Заслуженный работник культуры России, заслуженный инженер-строитель нерушимого «Старого Дома», Конструктор и бессменный капитан непотопляемого театрального «Титаника», рыцарь студенческого театра Николай Стуликов за создание убедительного образа внесценического персонажа Извозчика.
Автор: Николай васильевич Гоголь.
Cценическая композиция, постановка, сценография, музыкальное оформление: заслуженный работник культуры России Николай Стуликов.
Музыка: Франческо Манфредини (1688-1748). Симфония № 10.
Художественный руководитель театра: заслуженный работник культуры России Николай Стуликов.
Спектакль поставлен в декабре 2006 года.
Спектакль записан 26 апреля 2014 года.

О спектакле.
Релиз
Рип sharky.

Качество видео:...WEB-DLRip
Формат:.................AVI
Видео:..704x400 (1.76:1), 25 fps, DivX Codec 4.x ~1233 kbps avg, 0.17 bit/pixel
Аудио:..44.100 kHz, MPEG Layer 3, 2 ch, ~128.00 kbps avg

Отчет MI

Общее
Полное имя : Zhenit'ba_NST.Staryj.dom.Ekaterinburg.2014.DivX.WEB-DLRip.fenixclub.avi
Format : AVI
Format/Info : Audio Video Interleave
File size : 1.45 GiB
Duration : 2h 31mn
Overall bit rate : 1 372 Kbps
Video
ID : 0
Format : MPEG-4 Visual
Format settings, BVOP : 1
Format settings, QPel : No
Format settings, GMC : No warppoints
Format settings, Matrix : Default (H.263)
Codec ID : DX50
Codec ID/Hint : DivX 5
Duration : 2h 31mn
Bit rate : 1 234 Kbps
Width : 704 pixels
Height : 400 pixels
Display aspect ratio : 16:9
Frame rate : 25.000 fps
Color space : YUV
Chroma subsampling : 4:2:0
Bit depth : 8 bits
Scan type : Progressive
Compression mode : Lossy
Bits/(Pixel*Frame) : 0.175
Stream size : 1.31 GiB (90%)
Title : Video
Writing library : DivX 3013
Audio
ID : 1
Format : MPEG Audio
Format version : Version 1
Format profile : Layer 3
Codec ID : 55
Codec ID/Hint : MP3
Duration : 2h 31mn
Bit rate mode : Constant
Bit rate : 128 Kbps
Channel(s) : 2 channels
Sampling rate : 44.1 KHz
Compression mode : Lossy
Stream size : 139 MiB (9%)
Alignment : Split accross interleaves
Interleave, duration : 40 ms (1.00 video frame)
Interleave, preload duratio : 500 ms
Title : Audio

Скриншот с названием постановки

Скриншоты


Альтернативный хост





Показать сообщения:    

Текущее время: 05-Дек 11:33

Часовой пояс: UTC + 3


Вы не можете начинать темы
Вы не можете отвечать на сообщения
Вы не можете редактировать свои сообщения
Вы не можете удалять свои сообщения
Вы не можете голосовать в опросах
Вы не можете прикреплять файлы к сообщениям
Вы не можете скачивать файлы