Поляна счастья (Людмила Матис) [2015 г., необыкновенная история, SATRip] Драма номер три (Каменск-Уральский театр драмы)


 

[Цитировать]

Поляна счастья Название театра: Драма номер три (Каменск-Уральский театр драмы).
Год выпуска: 2015.
Жанр: необыкновенная история.
Продолжительность: 01:53:06.
Режиссер: Людмила Матис.
Действующие лица и исполнители:
Оля - Мария Зворыгина,
Шишок - Иван Шмаков,
Бабушка Ксения - Ирма Арендт,
Черная кошка - заслуженная артистка России Лариса Комаленкова,
Прохор - заслуженный артист России Вячеслав Соловиченко,
Дядя Альберт, Дед Пехто - Владимир Скрябин,
Мама Оли - Инга Матис,
Диктор прогноза погоды - Ольга Морозова.
О спектакле:
По пьесе Александра Александрова "Шишок".
Смешная и немного грустная история о том, как девочка Оля подружилась со странным одиноким существом – Шишком, то есть - деревенским Домовым. До этой встречи Оля и не подозревала, сколько вокруг всего интересного! Это спектакль о взаимопонимании детей и взрослых, об ответственности за близких, о таких важных понятиях как Дом и Родина.

Дополнительная информация:
Страна: Россия .
Выпущено: Драма номер три (Каменск-Уральский театр драмы), Студия "Киноправда".
Автор: Александр Александров.
Художник-постановщик: Ольга Горячева (Санкт-Петербург).
Композитор: Сергей Сидельников (Екатеринбург).
Режиссёр по пластике: Вячеслав Белоусов (Екатеринбург).
Художественный руководитель театра: Людмила Матис.
Премьера спектакля состоялась 9 ноября 2012 года.

О спектакле.
Релиз

Качество видео:...SATRip
Формат:.................AVI
Видео:..720x544 (1.32:1), 25 fps, XviD MPEG-4 ~1588 kbps avg, 0.16 bit/pixel
Аудио:..44.100 kHz, MPEG Layer 3, 2 ch, ~128.00 kbps avg

Отчет MI

Общее
Полное имя : Polyana.schast'ya_Kamensk-Ural'skij.teatr dramy.2015.XviD.SATRip.fenixclub.avi
Format : AVI
Format/Info : Audio Video Interleave
File size : 1.36 GiB
Duration : 1h 53mn
Overall bit rate : 1 727 Kbps
Writing application : VirtualDubModRus 1.5.10.2 (build 2542/release)
Writing library : VirtualDub build 32842/release
Video
ID : 0
Format : MPEG-4 Visual
Format profile : Advanced Simple@L5
Format settings, BVOP : 2
Format settings, QPel : No
Format settings, GMC : No warppoints
Format settings, Matrix : Default (H.263)
Codec ID : XVID
Codec ID/Hint : XviD
Duration : 1h 53mn
Bit rate : 1 589 Kbps
Width : 720 pixels
Height : 544 pixels
Display aspect ratio : 4:3
Frame rate : 25.000 fps
Color space : YUV
Chroma subsampling : 4:2:0
Bit depth : 8 bits
Scan type : Progressive
Compression mode : Lossy
Bits/(Pixel*Frame) : 0.162
Stream size : 1.26 GiB (92%)
Writing library : XviD 73
Audio
ID : 1
Format : MPEG Audio
Format version : Version 1
Format profile : Layer 3
Mode : Joint stereo
Mode extension : MS Stereo
Codec ID : 55
Codec ID/Hint : MP3
Duration : 1h 53mn
Bit rate mode : Constant
Bit rate : 128 Kbps
Channel(s) : 2 channels
Sampling rate : 44.1 KHz
Compression mode : Lossy
Stream size : 104 MiB (7%)
Alignment : Split accross interleaves
Interleave, duration : 40 ms (1.00 video frame)
Interleave, preload duratio : 500 ms.

Скриншот с названием постановки

Скриншоты

Альтернативный хост




Показать сообщения:    

Текущее время: 05-Дек 11:25

Часовой пояс: UTC + 3


Вы не можете начинать темы
Вы не можете отвечать на сообщения
Вы не можете редактировать свои сообщения
Вы не можете удалять свои сообщения
Вы не можете голосовать в опросах
Вы не можете прикреплять файлы к сообщениям
Вы не можете скачивать файлы