Две англичанки и континент / Les deux anglaises et le continent (Франсуа Трюффо / François Truffaut) [1971, Франция, драма, мелодрама, BDRip] [Director's Cut] MVO (Кармен Видео) + Sub Rus, Eng + Original Fre


 

[Цитировать]

Две англичанки и континент / Les deux anglaises et le continent
Режиссерская версия / Director's Cut

Страна: Франция
Жанр: драма, мелодрама
Год выпуска: 1971
Продолжительность: 02:09:45
Перевод: Профессиональный (многоголосый закадровый) - Кармен Видео
Cубтитры: русские (форсированные, полные), английские
Оригинальная аудиодорожка: французский

Режиссер: Франсуа Трюффо / François Truffaut
В ролях: Жан-Пьер Лео, Кика Маркам, Стейси Тендетер, Сильвия Марриотт, Мари Мансар, Филипп Леотар, Ирен Тунк, Марк Петерсон, Жорж Делерю, Мари Иракан
Описание: Клод, молодой критик-искусствовед и подающий надежды писатель, пробивающий дорогу в жизни природным очарованием, в Париже знакомится с Анн, свободной и раскрепощенной девушкой, которая приглашает его провести лето в доме у моря, где она живет со своей сестрой Мюриэл. Анн относится к Клоду совсем не безразлично, но намеревается свести его с пуританкой Мюриэл, надеясь, что он влюбится в сестру. Ее план срабатывает, но, когда она сама заводит роман с Клодом, ситуация осложняется...
Трагическая любовная история о необычном любовном треугольнике, в котором каждый любит двоих, о сложности любви одного мужчины к двум женщинам. Фильм - как бы обратный вариант другой ленты Франсуа Трюффо "Жюль и Джим" (обе картины поставлены по романам Анри-Пьера Роше), в которой центральной фигурой была женщина.

Качество видео: BDRip
Формат видео: AVI
Видео: 720x432 (1.67:1), 24 fps, XviD build 73 ~1406 kbps avg, 0.19 bit/pixel
Аудио: 48 kHz, AC3 Dolby Digital, 2/0 (L,R) ch, ~192 kbps - многоголосый
Аудио: 48 kHz, AC3 Dolby Digital, 2/0 (L,R) ch, ~192 kbps - оригинал (отдельно)

MediaInfo

Общее
Полное имя : H:\Les.deux.Anglaises.et.le.continent.1971.bdrip_[1.46].avi
Формат : AVI
Формат/Информация : Audio Video Interleave
Размер файла : 1,46 Гбайт
Продолжительность : 2 ч. 9 м.
Общий поток : 1608 Кбит/сек
Программа кодирования : VirtualDubMod 1.5.10.3 | www.virtualdub-fr.org || (build 2550/release)
Библиотека кодирования : VirtualDubMod build 2550/release
Видео
Идентификатор : 0
Формат : MPEG-4 Visual
Профиль формата : Advanced Simple@L5
Параметр BVOP формата : 2
Параметр QPel формата : Нет
Параметр GMC формата : Без точки перехода
Параметр матрицы формата : Выборочная
Идентификатор кодека : XVID
Идентификатор кодека/Подсказка : XviD
Продолжительность : 2 ч. 9 м.
Битрейт : 1406 Кбит/сек
Ширина : 720 пикселей
Высота : 432 пикселя
Соотношение сторон : 1,667
Частота кадров : 24,000 кадра/сек
Цветовое пространство : YUV
Субдискретизация насыщенности : 4:2:0
Битовая глубина : 8 бит
Тип развёртки : Прогрессивная
Метод сжатия : С потерями
Бит/(Пиксели*Кадры) : 0.188
Размер потока : 1,27 Гбайт (87%)
Библиотека кодирования : XviD 73
Аудио
Идентификатор : 1
Формат : AC-3
Формат/Информация : Audio Coding 3
Расширение режима : CM (complete main)
Параметр Endianness формата : Big
Идентификатор кодека : 2000
Продолжительность : 2 ч. 9 м.
Вид битрейта : Постоянный
Битрейт : 192 Кбит/сек
Каналы : 2 канала
Расположение каналов : Front: L R
Частота : 48,0 КГц
Битовая глубина : 16 бит
Метод сжатия : С потерями
Размер потока : 178 Мбайт (12%)
Выравнивание : Разделение по промежуткам
Продолжительность промежутка : 42 мс. (1,00 видеокадр)
Время предзагрузки промежутка : 500 мс.



Показать сообщения:    

Текущее время: 03-Дек 18:42

Часовой пояс: UTC + 3


Вы не можете начинать темы
Вы не можете отвечать на сообщения
Вы не можете редактировать свои сообщения
Вы не можете удалять свои сообщения
Вы не можете голосовать в опросах
Вы не можете прикреплять файлы к сообщениям
Вы не можете скачивать файлы